Subcategories

Channel 4 - Homes by the Med: Season 2 (2017)

Posted By: notbanned
Channel 4 - Homes by the Med: Season 2 (2017)

Channel 4 - Homes by the Med: Season 2 (2017)
PDTV | 832x468 | .MP4/AVC @ 2531 Kbps | 6x~47min | 5.59 GiB
Audio: English AAC 165 kbps, 2 channels | Subs: None
Genre: Documentary

Charlie Luxton returns for a new run of the show about the best coastal properties on the Mediterranean.
Part 1: Ibiza
Charlie visits a glam mansion built of bamboo and concrete, a classic Ibizan farmhouse, and a yoga retreat in a refurbished villa

Part 2: Croatia
Charlie explores the stunning Dalmatian coastline and islands, including a cascading house, a refurbished fisherman's cottage and a Roman ruin in Split

Part 3: Mallorca
Charlie explores some fabulous island homes, including a harbour-front house with an amazing glass floor

Part 4: The Amalfi Coast
Charlie visits a swanky hillside villa, a palace and a spectacular auditorium on Italy's amazing Amalfi coast. He also makes some limoncello.

Part 5: Malta
Charlie heads to Malta. He visits a huge mansion with a multi-level roof terrace cut into a limestone cliff, one that resembles the deck of a cruise liner.

Part 6: Costa Blanca
Charlie heads to Costa Blanca and discovers a fab farmhouse rescued by Essex couple Lee and Kerry, whose rural retreat is like an organic extension of the landscape


General
Complete name : Homes.By.The.Med.Series.2.1of6.Ibiza.PDTV.mp4
Format : MPEG-4
Format profile : Base Media
Codec ID : isom (isom/iso2/avc1/mp41)
File size : 914 MiB
Duration : 47 min 16 s
Overall bit rate mode : Variable
Overall bit rate : 2 701 kb/s

Video
ID : 1
Format : AVC
Format/Info : Advanced Video Codec
Format profile : High@L3.1
Format settings, CABAC : No
Format settings, ReFrames : 2 frames
Format settings, GOP : M=1, N=12
Codec ID : avc1
Codec ID/Info : Advanced Video Coding
Duration : 47 min 16 s
Bit rate : 2 531 kb/s
Width : 832 pixels
Height : 468 pixels
Display aspect ratio : 16:9
Frame rate mode : Constant
Frame rate : 25.000 FPS
Color space : YUV
Chroma subsampling : 4:2:0
Bit depth : 8 bits
Scan type : Progressive
Bits/(Pixel*Frame) : 0.260
Stream size : 856 MiB (94%)
Encoded date : UTC 2017-10-14 13:54:22
Tagged date : UTC 2017-10-14 13:54:22

Audio
ID : 2
Format : AAC
Format/Info : Advanced Audio Codec
Format profile : LC
Codec ID : 40
Duration : 47 min 16 s
Bit rate mode : Variable
Bit rate : 165 kb/s
Channel(s) : 2 channels
Channel positions : Front: L R
Sampling rate : 48.0 kHz
Frame rate : 46.875 FPS (1024 spf)
Compression mode : Lossy
Stream size : 55.9 MiB (6%)
Language : English
Encoded date : UTC 2017-10-14 13:54:22
Tagged date : UTC 2017-10-14 13:54:22


Screenshots:

Channel 4 - Homes by the Med: Season 2 (2017)

Channel 4 - Homes by the Med: Season 2 (2017)

Channel 4 - Homes by the Med: Season 2 (2017)

Channel 4 - Homes by the Med: Season 2 (2017)