Tags
Language
Tags

Hostel: Part II (2007)

Posted By: Tavaz
1080p (FullHD) / BDRip IMDb
Hostel: Part II (2007)

Hostel: Part II (2007)
BDRip | MKV | 1920x1080 | English | H264 @ 5760 kbps | AC-3 @ 448 kbps | 1 h 34 min | 4.49 GiB
Subtitles: English
Genre: Horror

Following a geographical tour of Slovakia, three young American women are lured into a hostel by a handsome young man who sells them to the twisted masters, ties them up and brings upon them an unthinkable world of pain.

63d44c28497a6336a4c940f0f8cdb776.mkv (4.5 GB)



General
Complete name : ./63d44c28497a6336a4c940f0f8cdb776.mkv
Format : Matroska
Format version : Version 4 / Version 2
File size : 4.49 GiB
Duration : 1 h 34 min
Overall bit rate : 6 772 kb/s
Encoded date : UTC 2020-05-07 21:05:26 / UTC 2020-05-06T14:36:34Z
Writing application : mkvmerge v38.0.0 ('The Silent Type') 64-bit
Writing library : libebml v1.3.9 + libmatroska v1.5.2 / Lavf57.7.2

Video
ID : 1
Format : AVC
Format/Info : Advanced Video Codec
Format profile : High@L4
Format settings : CABAC / 4 Ref Frames
Format settings, CABAC : Yes
Format settings, RefFrames : 4 frames
Codec ID : V_MPEG4/ISO/AVC
Duration : 1 h 34 min
Bit rate : 5 760 kb/s
Width : 1 920 pixels
Height : 1 080 pixels
Display aspect ratio : 16:9
Frame rate mode : Constant
Frame rate : 23.976 (24000/1001) FPS
Color space : YUV
Chroma subsampling : 4:2:0
Bit depth : 8 bits
Scan type : Progressive
Bits/(Pixel*Frame) : 0.116
Stream size : 3.72 GiB (83%)
Writing library : x264 core 155 r2901 7d0ff22
Encoding settings : cabac=1 / ref=4 / deblock=1:-3:-3 / analyse=0x3:0x133 / me=umh / subme=9 / psy=1 / psy_rd=1.10:0.25 / mixed_ref=1 / me_range=32 / chroma_me=1 / trellis=2 / 8x8dct=1 / cqm=0 / deadzone=6,6 / fast_pskip=1 / chroma_qp_offset=-4 / threads=34 / lookahead_threads=3 / sliced_threads=0 / nr=0 / decimate=1 / interlaced=0 / bluray_compat=0 / constrained_intra=0 / bframes=6 / b_pyramid=2 / b_adapt=2 / b_bias=0 / direct=3 / weightb=1 / open_gop=0 / weightp=2 / keyint=240 / keyint_min=24 / scenecut=40 / intra_refresh=0 / rc_lookahead=40 / rc=2pass / mbtree=1 / bitrate=5760 / ratetol=1.0 / qcomp=0.60 / qpmin=0 / qpmax=69 / qpstep=4 / cplxblur=20.0 / qblur=0.5 / vbv_maxrate=20000 / vbv_bufsize=25000 / nal_hrd=none / filler=0 / ip_ratio=1.40 / aq=1:1.00
Default : Yes
Forced : No
Color range : Limited
Color primaries : BT.709
Transfer characteristics : BT.709
Matrix coefficients : BT.709
Statistics Tags Issue : mkvmerge v38.0.0 ('The Silent Type') 64-bit 2020-05-07 21:05:26 / mkvmerge v38.0.0 ('The Silent Type') 64-bit 2020-05-07 21:05:26 / UTC 2020-05-06T14:36:34Z
FromStats_BitRate : 5745055
FromStats_Duration : 01:34:58.693000000
FromStats_FrameCount : 136632
FromStats_StreamSize : 4092413178

Audio #1
ID : 2
Format : AC-3
Format/Info : Audio Coding 3
Format settings, Endianness : Big
Codec ID : A_AC3
Duration : 1 h 34 min
Bit rate mode : Constant
Bit rate : 448 kb/s
Channel(s) : 6 channels
Channel positions : Front: L C R, Side: L R, LFE
Sampling rate : 48.0 kHz
Frame rate : 31.250 FPS (1536 SPF)
Bit depth : 16 bits
Compression mode : Lossy
Stream size : 304 MiB (7%)
Title : Surround
Language : English
Service kind : Complete Main
Default : Yes
Forced : No
Statistics Tags Issue : mkvmerge v38.0.0 ('The Silent Type') 64-bit 2020-05-07 21:05:26 / mkvmerge v38.0.0 ('The Silent Type') 64-bit 2020-05-07 21:05:26 / UTC 2020-05-06T14:36:34Z
FromStats_BitRate : 448000
FromStats_Duration : 01:34:58.688000000
FromStats_FrameCount : 178084
FromStats_StreamSize : 319126528

Audio #2
ID : 3
Format : AC-3
Format/Info : Audio Coding 3
Mode : Dolby Digital
Format settings, Endianness : Big
Codec ID : A_AC3
Duration : 1 h 34 min
Bit rate mode : Constant
Bit rate : 192 kb/s
Channel(s) : 2 channels
Channel positions : Front: L R
Sampling rate : 48.0 kHz
Frame rate : 31.250 FPS (1536 SPF)
Bit depth : 16 bits
Compression mode : Lossy
Stream size : 130 MiB (3%)
Title : Stereo director's commentary
Language : English
Service kind : Complete Main
Default : No
Forced : No
Statistics Tags Issue : mkvmerge v38.0.0 ('The Silent Type') 64-bit 2020-05-07 21:05:26 / mkvmerge v38.0.0 ('The Silent Type') 64-bit 2020-05-07 21:05:26 / UTC 2020-05-06T14:36:34Z
FromStats_BitRate : 192000
FromStats_Duration : 01:34:58.720000000
FromStats_FrameCount : 178085
FromStats_StreamSize : 136769280

Audio #3
ID : 4
Format : AC-3
Format/Info : Audio Coding 3
Mode : Dolby Digital
Format settings, Endianness : Big
Codec ID : A_AC3
Duration : 1 h 34 min
Bit rate mode : Constant
Bit rate : 192 kb/s
Channel(s) : 2 channels
Channel positions : Front: L R
Sampling rate : 48.0 kHz
Frame rate : 31.250 FPS (1536 SPF)
Bit depth : 16 bits
Compression mode : Lossy
Stream size : 130 MiB (3%)
Title : Stereo director and producers commentary
Language : English
Service kind : Complete Main
Default : No
Forced : No
Statistics Tags Issue : mkvmerge v38.0.0 ('The Silent Type') 64-bit 2020-05-07 21:05:26 / mkvmerge v38.0.0 ('The Silent Type') 64-bit 2020-05-07 21:05:26 / UTC 2020-05-06T14:36:34Z
FromStats_BitRate : 192000
FromStats_Duration : 01:34:58.720000000
FromStats_FrameCount : 178085
FromStats_StreamSize : 136769280

Audio #4
ID : 5
Format : AC-3
Format/Info : Audio Coding 3
Mode : Dolby Digital
Format settings, Endianness : Big
Codec ID : A_AC3
Duration : 1 h 34 min
Bit rate mode : Constant
Bit rate : 192 kb/s
Channel(s) : 2 channels
Channel positions : Front: L R
Sampling rate : 48.0 kHz
Frame rate : 31.250 FPS (1536 SPF)
Bit depth : 16 bits
Compression mode : Lossy
Stream size : 130 MiB (3%)
Title : Stereo director and actors commentary
Language : English
Service kind : Complete Main
Default : No
Forced : No
Statistics Tags Issue : mkvmerge v38.0.0 ('The Silent Type') 64-bit 2020-05-07 21:05:26 / mkvmerge v38.0.0 ('The Silent Type') 64-bit 2020-05-07 21:05:26 / UTC 2020-05-06T14:36:34Z
FromStats_BitRate : 192000
FromStats_Duration : 01:34:58.720000000
FromStats_FrameCount : 178085
FromStats_StreamSize : 136769280

Text
ID : 6
Format : UTF-8
Codec ID : S_TEXT/UTF8
Codec ID/Info : UTF-8 Plain Text
Language : English
Default : Yes
Forced : No
Statistics Tags Issue : mkvmerge v38.0.0 ('The Silent Type') 64-bit 2020-05-07 21:05:26 / mkvmerge v38.0.0 ('The Silent Type') 64-bit 2020-05-07 21:05:26 / UTC 2020-05-06T14:36:34Z
FromStats_BitRate : 39
FromStats_Duration : 01:33:53.836000000
FromStats_FrameCount : 1034
FromStats_StreamSize : 28020

Menu
00:00:00.000 : :Chapter 1
00:07:22.150 : :Chapter 2
00:13:19.549 : :Chapter 3
00:16:44.754 : :Chapter 4
00:21:28.746 : :Chapter 5
00:29:11.041 : :Chapter 6
00:33:07.152 : :Chapter 7
00:37:35.003 : :Chapter 8
00:44:23.119 : :Chapter 9
00:52:28.771 : :Chapter 10
00:55:55.060 : :Chapter 11
01:04:02.130 : :Chapter 12
01:09:18.738 : :Chapter 13
01:14:21.499 : :Chapter 14
01:20:07.428 : :Chapter 15
01:26:32.396 : :Chapter 16





Hostel: Part II (2007)


Hostel: Part II (2007)


Hostel: Part II (2007)


Hostel: Part II (2007)


Hostel: Part II (2007)