Hot Girls Wanted (2015)

Posted By: JohnSmith
Hot Girls Wanted (2015)

Hot Girls Wanted (2015)
WEBRip | AVI / XviD@2003 kb/s | 720x400 | 1h 20mn | 1.21 GB | Italian: MP3, 128 kb/s (2 ch)
Genre: Documentary

Uno sguardo da vicino all'industria del porno amatoriale e delle webcam hot, che impiegano ragazze tra i 18 e i 19 anni per il divertimento dello spettatore.

IMDB - Nominated for 1 Primetime Emmy. Another 1 nomination.



General
Complete name : C:\Users\Administrator\Desktop\Hot.Girls.Wanted.ITA.2015.WebRip.by.Peugeot206RC.avi
Format : AVI
Format/Info : Audio Video Interleave
File size : 1.21 GiB
Duration : 1h 20mn
Overall bit rate : 2 144 Kbps
Writing application : Lavf51.12.1
Writing library : VirtualDub build 32842/release

Video
ID : 0
Format : xvid
Codec ID : xvid
Duration : 1h 20mn
Bit rate : 2 003 Kbps
Width : 720 pixels
Height : 400 pixels
Display aspect ratio : 16:9
Frame rate : 29.970 fps
Bits/(Pixel*Frame) : 0.232
Stream size : 1.13 GiB (93%)

Audio
ID : 1
Format : MPEG Audio
Format version : Version 1
Format profile : Layer 3
Mode : Joint stereo
Mode extension : MS Stereo
Codec ID : 55
Codec ID/Hint : MP3
Duration : 1h 20mn
Bit rate mode : Constant
Bit rate : 128 Kbps
Channel(s) : 2 channels
Sampling rate : 44.1 KHz
Compression mode : Lossy
Stream size : 73.9 MiB (6%)
Alignment : Aligned on interleaves
Interleave, duration : 26 ms (0.78 video frame)
Interleave, preload duratio : 522 ms


Screenshots

Hot Girls Wanted (2015)

Hot Girls Wanted (2015)

Hot Girls Wanted (2015)