Tags
Language
Tags

Hotel Mumbai (2019)

Posted By: Tavaz
1080p (FullHD) / BDRip IMDb
Hotel Mumbai (2019)

Hotel Mumbai (2019)
BDRip | MKV | 1920x800 | English | H265 @ 2086 kbps | AAC @ 209 kbps | 2 h 2 min | 1.97 GiB
Subtitles: English
Genre: Action, Drama, History, Thriller

Mumbai, India, November 26, 2008. While several terrorists spread hatred and death through the city, others attack the Taj Mahal Palace Hotel. Both hotel staff and guests risk their lives, making unthinkable sacrifices to protect themselves and keep everyone safe while help arrives.

090f8a18660018ac929acb81ec9d6f17.mkv (2.0 GB)



General
Complete name : ./090f8a18660018ac929acb81ec9d6f17.mkv
Format : Matroska
Format version : Version 4 / Version 2
File size : 1.97 GiB
Duration : 2 h 2 min
Overall bit rate : 2 298 kb/s
Encoded date : UTC 2019-06-13 05:36:23
Writing application : mkvmerge v34.0.0 ('Sight and Seen') 64-bit
Writing library : libebml v1.3.7 + libmatroska v1.5.0

Video
ID : 1
Format : HEVC
Format/Info : High Efficiency Video Coding
Format profile : Main 10@L4@Main
Codec ID : V_MPEGH/ISO/HEVC
Duration : 2 h 2 min
Bit rate : 2 086 kb/s
Width : 1 920 pixels
Height : 800 pixels
Display aspect ratio : 2.40:1
Frame rate mode : Constant
Frame rate : 23.976 (24000/1001) FPS
Color space : YUV
Chroma subsampling : 4:2:0
Bit depth : 10 bits
Bits/(Pixel*Frame) : 0.057
Stream size : 1.79 GiB (91%)
Default : Yes
Forced : No

Audio
ID : 2
Format : AAC
Format/Info : Advanced Audio Codec
Format profile : HE-AAC / LC
Format settings : Explicit
Codec ID : A_AAC-2
Duration : 2 h 2 min
Bit rate : 210 kb/s
Channel(s) : 6 channels
Channel(s)_Original : 18 channels
Channel positions : Front: 14, Side: C, Back: C, LFE= 2
Sampling rate : 48.0 kHz / 24.0 kHz
Frame rate : 23.438 FPS (1024 SPF)
Compression mode : Lossy
Delay relative to video : 23 ms
Stream size : 184 MiB (9%)
Language : English
Default : Yes
Forced : No

Text #1
ID : 3
Format : UTF-8
Codec ID : S_TEXT/UTF8
Codec ID/Info : UTF-8 Plain Text
Duration : 1 h 53 min
Bit rate : 33 b/s
Count of elements : 916
Stream size : 28.0 KiB (0%)
Title : ENG
Language : English
Default : Yes
Forced : No

Text #2
ID : 4
Format : UTF-8
Codec ID : S_TEXT/UTF8
Codec ID/Info : UTF-8 Plain Text
Duration : 1 h 55 min
Bit rate : 39 b/s
Count of elements : 1124
Stream size : 33.0 KiB (0%)
Title : ENG SDH
Language : English
Default : No
Forced : No

Menu
00:00:00.000 : :Chapter 1
00:06:39.200 : :Chapter 2
00:15:52.000 : :Chapter 3
00:24:23.400 : :Chapter 4
00:36:03.000 : :Chapter 5
00:48:47.000 : :Chapter 6
01:00:39.400 : :Chapter 7
01:15:30.600 : :Chapter 8
01:27:51.000 : :Chapter 9
01:37:14.800 : :Chapter 10
01:46:32.600 : :Chapter 11
01:55:33.400 : :Chapter 12





Hotel Mumbai (2019)


Hotel Mumbai (2019)


Hotel Mumbai (2019)


Hotel Mumbai (2019)


Hotel Mumbai (2019)