Tags
Language
Tags

Hotel Mumbai (2018)

Posted By: Barfin
1080p (FullHD) / BDRip IMDb
Hotel Mumbai (2018)

Hotel Mumbai (2018)
BDRip 1080p | MKV / AVC@5233 kb/s | 1920x800 | 2h 3mn
Deutsch (dubbed): DTS, 1509 kb/s (6 ch) | Subtitles: Deutsch | 5.82 GB
Genre: Drama | History | Thriller

Mumbai, November 2008: Eine Welle von verheerenden Anschlägen katapultierte die komplette Stadt ins Chaos. Terroristen töteten in einem Luxushotel und weiteren Orten wahllos Menschen. Es war einer der schwersten Terroranschläge weltweit und ein Schock für ganz Indien.


General
Unique ID : 183441295483429551250958119679861768372 (0x8A0182268F403486A0A56BD3A980C0B4)
Complete name : F:\Hotel.Mumbai.2018.German.1080p.BluRay.x264.mkv
Format : Matroska
Format version : Version 4
File size : 5.82 GiB
Duration : 2 h 3 min
Overall bit rate : 6 748 kb/s
Encoded date : UTC 2019-10-22 18:40:29
Writing application : mkvmerge v7.8.0 ('River Man') 32bit built on Apr 3 2015 12:11:22
Writing library : libebml v1.3.1 + libmatroska v1.4.2

Video
ID : 1
Format : AVC
Format/Info : Advanced Video Codec
Format profile : High@L4.1
Format settings : CABAC / 5 Ref Frames
Format settings, CABAC : Yes
Format settings, ReFrames : 5 frames
Codec ID : V_MPEG4/ISO/AVC
Duration : 2 h 3 min
Bit rate : 5 233 kb/s
Width : 1 920 pixels
Height : 800 pixels
Display aspect ratio : 2.40:1
Frame rate mode : Constant
Frame rate : 23.976 (24000/1001) FPS
Color space : YUV
Chroma subsampling : 4:2:0
Bit depth : 8 bits
Scan type : Progressive
Bits/(Pixel*Frame) : 0.142
Stream size : 4.51 GiB (78%)
Title : encounters-homu_1080p
Writing library : x264 core 157 r2969 d4099dd
Encoding settings : cabac=1 / ref=5 / deblock=1:-1:-1 / analyse=0x3:0x133 / me=umh / subme=7 / psy=1 / psy_rd=1.00:0.15 / mixed_ref=1 / me_range=16 / chroma_me=1 / trellis=1 / 8x8dct=1 / cqm=0 / deadzone=21,11 / fast_pskip=0 / chroma_qp_offset=-3 / threads=24 / lookahead_threads=4 / sliced_threads=0 / nr=0 / decimate=1 / interlaced=0 / bluray_compat=0 / constrained_intra=0 / bframes=3 / b_pyramid=2 / b_adapt=1 / b_bias=0 / direct=1 / weightb=1 / open_gop=0 / weightp=2 / keyint=250 / keyint_min=23 / scenecut=40 / intra_refresh=0 / rc_lookahead=40 / rc=crf / mbtree=1 / crf=20.0 / qcomp=0.60 / qpmin=0 / qpmax=69 / qpstep=4 / ip_ratio=1.40 / aq=1:1.00
Default : Yes
Forced : No

Audio
ID : 2
Format : DTS
Format/Info : Digital Theater Systems
Codec ID : A_DTS
Duration : 2 h 3 min
Bit rate mode : Constant
Bit rate : 1 509 kb/s
Channel(s) : 6 channels
Channel layout : C L R Ls Rs LFE
Sampling rate : 48.0 kHz
Frame rate : 93.750 FPS (512 SPF)
Bit depth : 24 bits
Compression mode : Lossy
Stream size : 1.30 GiB (22%)
Title : German DTS 5.1 @ 1 509 Kbps
Language : German
Default : Yes
Forced : No

Text #1
ID : 3
Format : VobSub
Muxing mode : zlib
Codec ID : S_VOBSUB
Codec ID/Info : Picture based subtitle format used on DVDs
Duration : 1 h 54 min
Bit rate : 4 722 b/s
Count of elements : 1422
Stream size : 3.86 MiB (0%)
Language : German
Default : No
Forced : No

Text #2
ID : 4
Format : UTF-8
Codec ID : S_TEXT/UTF8
Codec ID/Info : UTF-8 Plain Text
Duration : 1 h 49 min
Bit rate : 16 b/s
Count of elements : 384
Stream size : 13.0 KiB (0%)
Title : ger_forced.srt
Language : German
Default : Yes
Forced : Yes

Menu
00:00:00.000 : en:00:00:00.000
00:10:32.757 : en:00:10:32.757
00:19:14.320 : en:00:19:14.320
00:29:51.665 : en:00:29:51.665
00:42:10.987 : en:00:42:10.987
00:51:44.310 : en:00:51:44.310
01:00:56.528 : en:01:00:56.528
01:10:32.145 : en:01:10:32.145
01:19:27.304 : en:01:19:27.304
01:28:05.405 : en:01:28:05.405
01:37:11.034 : en:01:37:11.034
01:46:50.779 : en:01:46:50.779




Screenshots

Hotel Mumbai (2018)

Hotel Mumbai (2018)

Hotel Mumbai (2018)