House on Elm Lake (2017)

Posted By: Without
720p (HD) / WEB-DL IMDb
House on Elm Lake (2017)

House on Elm Lake (2017)
WEB-DL 720p | MKV | 960x540 | AVC@4025 kb/s | English AAC@126 kb/s
Subs: English | 2 channels | 1 h 36 min | 2.81 GB
Genre: Horror

A couple and their young daughter move into a lake house that remained unsold due to the brutal, ritualistic murder of a family years ago. Soon, they realize that a dormant evil has awakened, a possessive force that has preyed on unsuspecting families like theirs for centuries.



General
House.on.Elm.Lake.2017.720p.WEB-DL.DD5.1.H.264.CRO-DIAMOND.mkv
Format : Matroska
Format version : Version 4 / Version 2
File size : 2.81 GiB
Duration : 1 h 36 min
Overall bit rate : 4 154 kb/s
Movie name : CRO DIAMOND 1080p
Encoded date : UTC 2018-04-10 14:13:36
Writing application : mkvmerge v7.2.0 ('On Every Street') 64bit built on Oct 7 2014 18:52:30
Writing library : libebml v1.3.0 + libmatroska v1.4.1

Video
ID : 1
Format : AVC
Format/Info : Advanced Video Codec
Format profile : Main@L3.1
Format settings, CABAC : No
Format settings, ReFrames : 2 frames
Codec ID : V_MPEG4/ISO/AVC
Duration : 1 h 36 min
Bit rate : 4 025 kb/s
Width : 960 pixels
Height : 540 pixels
Display aspect ratio : 2.40:1
Frame rate mode : Constant
Frame rate : 25.000 FPS
Color space : YUV
Chroma subsampling : 4:2:0
Bit depth : 8 bits
Scan type : Progressive
Bits/(Pixel*Frame) : 0.311
Stream size : 2.72 GiB (97%)
Title : CRO DIAMOND 1080p
Language : English
Default : Yes
Forced : No
Color range : Limited
Color primaries : BT.709
Transfer characteristics : BT.709
Matrix coefficients : BT.709

Audio
ID : 2
Format : AAC
Format/Info : Advanced Audio Codec
Format profile : LC
Codec ID : A_AAC
Duration : 1 h 36 min
Bit rate : 126 kb/s
Channel(s) : 2 channels
Channel positions : Front: L R
Sampling rate : 48.0 kHz
Frame rate : 46.875 FPS (1024 spf)
Compression mode : Lossy
Stream size : 87.3 MiB (3%)
Language : English
Default : Yes
Forced : No

Text
ID : 3
Format : UTF-8
Codec ID : S_TEXT/UTF8
Codec ID/Info : UTF-8 Plain Text
Duration : 1 h 35 min
Bit rate : 34 b/s
Count of elements : 1078
Stream size : 24.0 KiB (0%)
Language : English
Default : Yes
Forced : No

Menu
00:00:00.000 : en:1
00:11:54.440 : en:2
00:21:52.400 : en:3
00:31:44.080 : en:4
00:40:46.280 : en:5
00:49:38.400 : en:6
01:00:53.120 : en:7
01:11:55.040 : en:8
01:22:01.560 : en:9
01:34:58.760 : en:10


WEB-DL 720p Screenshots

House on Elm Lake (2017)

House on Elm Lake (2017)

House on Elm Lake (2017)

House on Elm Lake (2017)


Come Visit My Blog (•‿•)