Pelham Films - How To Build A Dream Design (2011)

Posted By: notbanned
Pelham Films - How To Build A Dream Design (2011)

Pelham Films - How To Build A Dream Design (2011)
DVDRip | 832x468 | .MP4/AVC @ 1806 Kbps | 1h 43mn | Audio: English AAC 128 kbps, 6 channels | Subs: None | 1.40 GiB
Genre: Documentary

".. What the Grand Designs TV show couldn't include. Monty's budget building guide; the ideas, the tricks and the cost savings. How to get planning and how to do yours; step by step…" The opening roof, the bath under the bed and a draw-basin? Join Monty as he bares all;- from ideas, thru planning applications and onto the build; all to make a 4 bedroom house in central London for 170k. Build a whole house too; or perhaps just a few of the amazing ideas? Save money, save space, learn from his mistakes.. 100 minutes rammed full of entertaining design and process information in easy to use chapters.


General
Complete name : How.To.Build.A.Dream.Design.mp4
Format : MPEG-4
Format profile : Base Media
Codec ID : isom
File size : 1.40 GiB
Duration : 1h 43mn
Overall bit rate mode : Variable
Overall bit rate : 1 939 Kbps
Encoded date : UTC 2013-09-20 17:42:14
Tagged date : UTC 2013-09-20 17:42:14
Writing application : Lavf51.12.1

Video
ID : 1
Format : AVC
Format/Info : Advanced Video Codec
Format profile : High@L3.0
Format settings, CABAC : No
Format settings, ReFrames : 1 frame
Format settings, GOP : M=1, N=12
Codec ID : avc1
Codec ID/Info : Advanced Video Coding
Duration : 1h 43mn
Bit rate : 1 806 Kbps
Width : 832 pixels
Height : 468 pixels
Display aspect ratio : 16:9
Frame rate mode : Constant
Frame rate : 25.000 fps
Color space : YUV
Chroma subsampling : 4:2:0
Bit depth : 8 bits
Scan type : Progressive
Bits/(Pixel*Frame) : 0.186
Stream size : 1.31 GiB (93%)
Encoded date : UTC 2013-09-20 17:42:14
Tagged date : UTC 2013-09-20 17:42:14

Audio
ID : 2
Format : AAC
Format/Info : Advanced Audio Codec
Format profile : LC
Codec ID : 40
Duration : 1h 43mn
Bit rate mode : Variable
Bit rate : 128 Kbps
Channel(s) : 2 channels
Channel positions : Front: L R
Sampling rate : 48.0 KHz
Compression mode : Lossy
Stream size : 94.8 MiB (7%)
Encoded date : UTC 2013-09-20 17:42:14
Tagged date : UTC 2013-09-20 17:42:14


Screenshots:

Pelham Films - How To Build A Dream Design (2011)

Pelham Films - How To Build 			  		   	  		  	   		 			  	 			   		      	 			   		      	 			   		   				 A Dream Design (2011)

Pelham Films - How To Build A Dream Design (2011)

Pelham Films - How To Build A Dream Design (2011)