National Geographic - Hunting Hitler's Stolen Treasures: The Monuments Men (2014)

Posted By: Tutorial
National Geographic - Hunting Hitler's Stolen Treasures: The Monuments Men (2014)

National Geographic - Hunting Hitler's Stolen Treasures: The Monuments Men (2014)
HDTV | 1280 x 720 | .MP4/AVC @ 3500 Kbps | 44mn 6s | English AAC 160 Kbps, 2 channels | 1.12 GB
Genre: Documentary, History, Arts, War

Just days before George Clooney brings the drama and action of one of the greatest treasure hunts in history to life in the feature film “The Monuments Men,” NGC presents the true story of an unlikely World War II “band of brothers.” The unsuspecting group of scholars, academics, historians and architects headed to the front lines of the bloodiest war in history to rescue thousands of years' worth of European art and culture from Nazi-occupied Europe. Through extensive archive sources and photographs, journals and letter excerpts, along with the personal accounts from surviving family members, this special sheds light on the remarkable story.

Related Documentaries:
In Love with Adolf Hitler (2007)
History Channel - Hunting Hitler: Series 2 (2016)
Ben Building: Mussolini, Monuments and Modernism (2016)
BBC Storyville - Hitler, Stalin and Mr Jones (2012)
BBC - Hunting the Nazi Gold Train (2016)
National Geographic - Hitlers Suicide Ship (2010)
CH4 Time Team - Hitlers Island Fortress (2011)
HC Battle Stations - Hitlers Vengeance Weapons (2001)
PBS Nova - 3D Spies of WWII (2012)
Hitlers Museum - The Secret History of Art Theft during World War 2 (2008)
National Geographic - Nazi Megastructures: Season 2 (2014)
History Channel - WWII in HD (2009)
BBC - Secrets of World War II: The Enigma Secret (1998)
The Fatal Attraction of Adolf Hitler (1989)
Apocalypse: The Second World War (2009)

General
Complete name : Hunting.Hitlers.Stolen.Treasures.The.Monuments.Men.mp4
Format : MPEG-4
Format profile : Base Media / Version 2
Codec ID : mp42
File size : 1.12 GiB
Duration : 44mn 6s
Overall bit rate mode : Variable
Overall bit rate : 3 623 Kbps
Encoded date : UTC 2014-02-25 09:11:26
Tagged date : UTC 2014-02-25 10:05:18
Writing application : HandBrake 0.9.9 2013052900

Video
ID : 1
Format : AVC
Format/Info : Advanced Video Codec
Format profile : High@L4.1
Format settings, CABAC : Yes
Format settings, ReFrames : 4 frames
Codec ID : avc1
Codec ID/Info : Advanced Video Coding
Duration : 44mn 6s
Bit rate mode : Variable
Bit rate : 3 500 Kbps
Width : 1 280 pixels
Height : 720 pixels
Display aspect ratio : 16:9
Frame rate mode : Constant
Frame rate : 25.000 fps
Color space : YUV
Chroma subsampling : 4:2:0
Bit depth : 8 bits
Scan type : Progressive
Bits/(Pixel*Frame) : 0.152
Stream size : 1.07 GiB (95%)
Writing library : x264 core 130 r2273 b3065e6
Encoding settings : cabac=1 / ref=1 / deblock=1:0:0 / analyse=0x3:0x113 / me=hex / subme=2 / psy=1 / psy_rd=1.00:0.00 / mixed_ref=0 / me_range=16 / chroma_me=1 / trellis=0 / 8x8dct=1 / cqm=0 / deadzone=21,11 / fast_pskip=1 / chroma_qp_offset=0 / threads=3 / lookahead_threads=1 / sliced_threads=0 / nr=0 / decimate=1 / interlaced=0 / bluray_compat=0 / constrained_intra=0 / bframes=3 / b_pyramid=2 / b_adapt=1 / b_bias=0 / direct=1 / weightb=1 / open_gop=0 / weightp=1 / keyint=250 / keyint_min=25 / scenecut=40 / intra_refresh=0 / rc_lookahead=10 / rc=abr / mbtree=1 / bitrate=3500 / ratetol=1.0 / qcomp=0.60 / qpmin=0 / qpmax=69 / qpstep=4 / vbv_maxrate=62500 / vbv_bufsize=78125 / nal_hrd=none / ip_ratio=1.40 / aq=1:1.00
Encoded date : UTC 2014-02-25 09:11:26
Tagged date : UTC 2014-02-25 10:05:18
Color primaries : BT.709-5, BT.1361, IEC 61966-2-4, SMPTE RP177
Transfer characteristics : BT.709-5, BT.1361
Matrix coefficients : BT.709-5, BT.1361, IEC 61966-2-4 709, SMPTE RP177

Audio
ID : 2
Format : AAC
Format/Info : Advanced Audio Codec
Format profile : LC
Codec ID : 40
Duration : 44mn 6s
Bit rate mode : Variable
Bit rate : 160 Kbps
Maximum bit rate : 208 Kbps
Channel(s) : 2 channels
Channel positions : Front: L R
Sampling rate : 48.0 KHz
Compression mode : Lossy
Stream size : 50.5 MiB (4%)
Encoded date : UTC 2014-02-25 09:11:26
Tagged date : UTC 2014-02-25 10:05:18
Screenshots

National Geographic - Hunting Hitler's Stolen Treasures: The Monuments Men (2014)

National Geographic - Hunting Hitler's Stolen Treasures: The Monuments Men (2014)

National Geographic - Hunting Hitler's Stolen Treasures: The Monuments Men (2014)

National Geographic - Hunting Hitler's Stolen Treasures: The Monuments Men (2014)

National Geographic - Hunting Hitler's Stolen Treasures: The Monuments Men (2014)

National Geographic - Hunting Hitler's Stolen Treasures: The Monuments Men (2014)

Welcome to my blog - daily update!

National Geographic - Hunting Hitler's Stolen Treasures: The Monuments Men (2014)