Heaven Is for Real / Небеса реальны (2014)

Posted By: RSU75
Heaven Is for Real / Небеса реальны (2014)

Heaven Is for Real / Небеса реальны (2014)
BDRip | MKV | AVC 1280x534, ~ 5.8 Mbps | 1hr 39mn | 5.39 GB
Russian \ French \ Polish: AC3, 6 ch, 640 kbps
Subtitles: English, Russian; Subtitles(PGS): English, Dutch, French, Hindi, Polish
Genre: Drama
IMDB Rating: 5.8/10 (21.344 votes)


Director: Randall Wallace
Writers: Randall Wallace, Chris Parker
Stars: Greg Kinnear, Kelly Reilly, Thomas Haden Church

Based on the #1 New York Times best-selling book of the same name, HEAVEN IS FOR REAL brings to the screen the true story of a small-town father who must find the courage and conviction to share his son's extraordinary, life-changing experience with the world. The film stars Academy Award® nominee and Emmy® award winning actor Greg Kinnear as Todd Burpo and co-stars Kelly Reilly as Sonja Burpo, the real-life couple whose son Colton (newcomer Connor Corum) claims to have visited Heaven during a near death experience. Colton recounts the details of his amazing journey with childlike innocence and speaks matter-of-factly about things that happened before his birth … things he couldn't possibly know. Todd and his family are then challenged to examine the meaning from this remarkable event.




General
Unique ID : 216913487550104423227922157874528762914 (0xA33004A24B74EB4C9B178D215A29BC22)
Complete name : m:\HvnRl.14.7p2\HvnRl.14.7p2.mkv
Format : Matroska
Format version : Version 4 / Version 2
File size : 5.39 GiB
Duration : 1 h 39 min
Overall bit rate : 7 759 kb/s
Movie name : Release RSU75
Encoded date : UTC 2016-10-18 10:13:50
Writing application : mkvmerge v6.6.0 ('The Edge Of The In Between') built on Dec 1 2013 17:55:00
Writing library : libebml v1.3.0 + libmatroska v1.4.1

Video
ID : 1
Format : AVC
Format/Info : Advanced Video Codec
Format profile : High@L4.1
Format settings, CABAC : Yes
Format settings, ReFrames : 11 frames
Codec ID : V_MPEG4/ISO/AVC
Duration : 1 h 39 min
Bit rate : 5 789 kb/s
Width : 1 280 pixels
Height : 534 pixels
Display aspect ratio : 2.40:1
Frame rate mode : Constant
Frame rate : 23.976 FPS
Color space : YUV
Chroma subsampling : 4:2:0
Bit depth : 8 bits
Scan type : Progressive
Bits/(Pixel*Frame) : 0.353
Stream size : 3.95 GiB (73%)
Title : Heaven Is for Real.2014.720p.CHD
Writing library : x264 core 142 r2431 ac76440
Encoding settings : cabac=1 / ref=11 / deblock=1:-3:-3 / analyse=0x3:0x113 / me=umh / subme=10 / psy=1 / psy_rd=1.00:0.05 / mixed_ref=1 / me_range=32 / chroma_me=1 / trellis=2 / 8x8dct=1 / cqm=0 / deadzone=21,11 / fast_pskip=0 / chroma_qp_offset=-2 / threads=18 / lookahead_threads=1 / sliced_threads=0 / nr=0 / decimate=1 / interlaced=0 / bluray_compat=0 / constrained_intra=0 / bframes=4 / b_pyramid=2 / b_adapt=2 / b_bias=0 / direct=3 / weightb=1 / open_gop=0 / weightp=2 / keyint=250 / keyint_min=23 / scenecut=40 / intra_refresh=0 / rc=2pass / mbtree=0 / bitrate=5789 / ratetol=1.0 / qcomp=0.70 / qpmin=0 / qpmax=69 / qpstep=4 / cplxblur=20.0 / qblur=0.5 / ip_ratio=1.40 / pb_ratio=1.30 / aq=2:0.90
Language : English
Default : Yes
Forced : No

Audio #1
ID : 5
Format : AC-3
Format/Info : Audio Coding 3
Mode extension : CM (complete main)
Format settings, Endianness : Big
Codec ID : A_AC3
Duration : 1 h 39 min
Bit rate mode : Constant
Bit rate : 640 kb/s
Channel(s) : 6 channels
Channel positions : Front: L C R, Side: L R, LFE
Sampling rate : 48.0 kHz
Frame rate : 31.250 FPS (1536 spf)
Compression mode : Lossy
Stream size : 455 MiB (8%)
Language : Russian
Default : No
Forced : No

Audio #2
ID : 6
Format : AC-3
Format/Info : Audio Coding 3
Mode extension : CM (complete main)
Format settings, Endianness : Big
Codec ID : A_AC3
Duration : 1 h 39 min
Bit rate mode : Constant
Bit rate : 640 kb/s
Channel(s) : 6 channels
Channel positions : Front: L C R, Side: L R, LFE
Sampling rate : 48.0 kHz
Frame rate : 31.250 FPS (1536 spf)
Compression mode : Lossy
Stream size : 455 MiB (8%)
Language : French
Default : No
Forced : No

Audio #3
ID : 7
Format : AC-3
Format/Info : Audio Coding 3
Mode extension : CM (complete main)
Format settings, Endianness : Big
Codec ID : A_AC3
Duration : 1 h 39 min
Bit rate mode : Constant
Bit rate : 640 kb/s
Channel(s) : 6 channels
Channel positions : Front: L C R, Side: L R, LFE
Sampling rate : 48.0 kHz
Frame rate : 31.250 FPS (1536 spf)
Compression mode : Lossy
Stream size : 455 MiB (8%)
Language : Polish
Default : No
Forced : No

Text #1
ID : 2
Format : UTF-8
Codec ID : S_TEXT/UTF8
Codec ID/Info : UTF-8 Plain Text
Title : Full
Language : English
Default : No
Forced : No

Text #2
ID : 3
Format : UTF-8
Codec ID : S_TEXT/UTF8
Codec ID/Info : UTF-8 Plain Text
Title : SDH
Language : English
Default : No
Forced : No

Text #3
ID : 4
Format : UTF-8
Codec ID : S_TEXT/UTF8
Codec ID/Info : UTF-8 Plain Text
Language : Russian
Default : No
Forced : No

Text #4
ID : 8
Format : PGS
Muxing mode : zlib
Codec ID : S_HDMV/PGS
Codec ID/Info : Picture based subtitle format used on BDs/HD-DVDs
Title : PGS
Language : English
Default : No
Forced : No

Text #5
ID : 9
Format : PGS
Muxing mode : zlib
Codec ID : S_HDMV/PGS
Codec ID/Info : Picture based subtitle format used on BDs/HD-DVDs
Title : PGS
Language : English
Default : No
Forced : No

Text #6
ID : 10
Format : PGS
Muxing mode : zlib
Codec ID : S_HDMV/PGS
Codec ID/Info : Picture based subtitle format used on BDs/HD-DVDs
Title : PGS
Language : Dutch
Default : No
Forced : No

Text #7
ID : 11
Format : PGS
Muxing mode : zlib
Codec ID : S_HDMV/PGS
Codec ID/Info : Picture based subtitle format used on BDs/HD-DVDs
Title : PGS
Language : French
Default : No
Forced : No

Text #8
ID : 12
Format : PGS
Muxing mode : zlib
Codec ID : S_HDMV/PGS
Codec ID/Info : Picture based subtitle format used on BDs/HD-DVDs
Title : PGS
Language : Hindi
Default : No
Forced : No

Text #9
ID : 13
Format : PGS
Muxing mode : zlib
Codec ID : S_HDMV/PGS
Codec ID/Info : Picture based subtitle format used on BDs/HD-DVDs
Title : PGS
Language : Polish
Default : No
Forced : No

Menu
00:00:00.000 : en:00:00:00.000
00:04:57.255 : en:00:04:57.255
00:11:09.669 : en:00:11:09.669
00:17:20.081 : en:00:17:20.081
00:22:07.618 : en:00:22:07.618
00:26:00.100 : en:00:26:00.100
00:33:09.487 : en:00:33:09.487
00:40:09.449 : en:00:40:09.449
00:44:37.842 : en:00:44:37.842
00:49:48.736 : en:00:49:48.736
00:56:35.309 : en:00:56:35.309
01:03:18.086 : en:01:03:18.086
01:06:33.448 : en:01:06:33.448
01:13:07.967 : en:01:13:07.967
01:16:29.585 : en:01:16:29.585
01:23:51.485 : en:01:23:51.485





Название: Небеса реальны
Оригинальное название: Heaven Is for Real
Год выпуска: 2014
Жанр: Драма
Выпущено: США
Режиссер: Рэндалл Уоллас
В ролях: Грег Киннер, Келли Райлли, Томас Хейден Чёрч, Коннор Корам, Лэйн Стайлз

О фильме: Главный герой меняет свое мировоззрение после того, как его 4-летний сын выходит из комы и утверждает, что был в раю. В доказательство он приводит факты из жизни их семьи, которые просто не мог знать.


Screenshots (click to enlarge to original size):

Heaven Is for Real / Небеса реальны (2014)

Heaven Is for Real / Небеса реальны (2014)

Heaven Is for Real / Небеса реальны (2014)

Heaven Is for Real / Небеса реальны (2014)

Heaven Is for Real / Небеса реальны (2014)




–––––––––––––––––––––––––––––––––––––––-
>>> Other BDRip <<< OR >>> "Drama" <<<
–––––––––––––––––––––––––––––––––––––––-
>>> Visit Blog RSU75 Here <<<
–––––––––––––––––––––––––––––––––––––––-