IMAX - Majestic White Horses (2001) (Repost)

Posted By: Polik88
IMAX - Majestic White Horses (2001) (Repost)

IMAX - Majestic White Horses (2001) (Repost)
DVDRip | English, French, Spanish, Japanese | AVI/XVID 29.970 fps 5820 Kbps | 720x416 | MP3 128 Kbps 48.0 khz | 24mn 4s | 1.06 GB
Genre: Documentary

Horses are and always have been an essential part of mankind's development, culture and the history of human civilization. Our natural connection with and dependence on this most elegant and courageous animal is the stuff of both epic and historical fact through the ages. For literally thousands of years horses have helped humanity evolve and grow. Majestic White Horses will use as its centerpiece both the world's most famous horses, the Lippizans of Austria, and their home, the internationally famous Spanish Riding School of Vienna, but will also capture the heart and mystique of this great animal from the time of its youth to the crowning achievement of its entrance into the School.
General
Complete name : spanish_riding_school.avi
Format : AVI
Format/Info : Audio Video Interleave
File size : 1.06 GiB
Duration : 24mn 4s
Overall bit rate mode : Variable
Overall bit rate : 6 329 Kbps
Writing application : VirtualDubMod 1.5.4.1 (build 2178/release)
Writing library : VirtualDubMod build 2178/release

Video
ID : 0
Format : MPEG-4 Visual
Format profile : Advanced Simple@L5
Format settings, BVOP : No
Format settings, QPel : No
Format settings, GMC : No warppoints
Format settings, Matrix : Custom
Codec ID : XVID
Codec ID/Hint : XviD
Duration : 24mn 4s
Bit rate : 5 820 Kbps
Width : 720 pixels
Height : 416 pixels
Display aspect ratio : 1.731
Frame rate : 29.970 fps
Color space : YUV
Chroma subsampling : 4:2:0
Bit depth : 8 bits
Scan type : Progressive
Compression mode : Lossy
Bits/(Pixel*Frame) : 0.648
Stream size : 1 002 MiB (92%)
Writing library : XviD 1.2.0.dev47 (UTC 2006-11-01)

Audio #1
ID : 1
Format : MPEG Audio
Format version : Version 1
Format profile : Layer 3
Mode : Joint stereo
Mode extension : MS Stereo
Codec ID : 55
Codec ID/Hint : MP3
Duration : 24mn 4s
Bit rate mode : Variable
Bit rate : 117 Kbps
Nominal bit rate : 128 Kbps
Channel(s) : 2 channels
Sampling rate : 48.0 KHz
Compression mode : Lossy
Stream size : 20.2 MiB (2%)
Alignment : Aligned on interleaves
Interleave, duration : 24 ms (0.72 video frame)
Interleave, preload duration : 527 ms
Writing library : LAME3.97
Encoding settings : -m j -V 4 -q 2 -lowpass 17 –abr 128
Language : English

Audio #2
ID : 2
Format : MPEG Audio
Format version : Version 1
Format profile : Layer 3
Mode : Joint stereo
Mode extension : MS Stereo
Codec ID : 55
Codec ID/Hint : MP3
Duration : 24mn 4s
Bit rate mode : Variable
Bit rate : 118 Kbps
Nominal bit rate : 128 Kbps
Channel(s) : 2 channels
Sampling rate : 48.0 KHz
Compression mode : Lossy
Stream size : 20.3 MiB (2%)
Alignment : Aligned on interleaves
Interleave, duration : 24 ms (0.72 video frame)
Interleave, preload duration : 519 ms
Writing library : LAME3.97
Encoding settings : -m j -V 4 -q 2 -lowpass 17 –abr 128
Language : Japanese

Audio #3
ID : 3
Format : MPEG Audio
Format version : Version 1
Format profile : Layer 3
Mode : Joint stereo
Mode extension : MS Stereo
Codec ID : 55
Codec ID/Hint : MP3
Duration : 24mn 4s
Bit rate mode : Variable
Bit rate : 118 Kbps
Nominal bit rate : 128 Kbps
Channel(s) : 2 channels
Sampling rate : 48.0 KHz
Compression mode : Lossy
Stream size : 20.2 MiB (2%)
Alignment : Aligned on interleaves
Interleave, duration : 24 ms (0.72 video frame)
Interleave, preload duration : 535 ms
Writing library : LAME3.97
Encoding settings : -m j -V 4 -q 2 -lowpass 17 –abr 128
Language : French

Audio #4
ID : 4
Format : MPEG Audio
Format version : Version 1
Format profile : Layer 3
Mode : Joint stereo
Mode extension : MS Stereo
Codec ID : 55
Codec ID/Hint : MP3
Duration : 24mn 4s
Bit rate mode : Variable
Bit rate : 118 Kbps
Nominal bit rate : 128 Kbps
Channel(s) : 2 channels
Sampling rate : 48.0 KHz
Compression mode : Lossy
Stream size : 20.3 MiB (2%)
Alignment : Aligned on interleaves
Interleave, duration : 24 ms (0.72 video frame)
Interleave, preload duration : 524 ms
Writing library : LAME3.97
Encoding settings : -m j -V 4 -q 2 -lowpass 17 –abr 128
Language : Spanish

Screenshots

IMAX - Majestic White Horses (2001) (Repost)

IMAX - Majestic White Horses (2001) (Repost)

IMAX - Majestic White Horses (2001) (Repost)

no mirrors please, Follow The Rules
Visit Polik88 Blog Here
no password