IMAX - Mexico (1997)

Posted By: vivid23
IMAX - Mexico (1997)

IMAX - Mexico (1997)
HDTV | 1280x720 | MKV/x264 @ 4469 Kbps | 41mn | Audio: English AC3 448 kbps, 6 channels | Subs: None | 1.46 GB
Genre: Documentary

From the tumultuous crowds at the annual lndependence Day celebration in Mexico City, the audience is transported back three millennia to the ancient Olmec, Toltec, Zapotec, Totanac, Aztec and Maya civilizations - the roots of Mexican culture. The abrupt, violent contact with Spanish conquerors in the early 16th century, dramatized in the overpowering images of Diego Rivera and other Mexican muralists, gives way to the fusion of cultures and the birth of a new society. Weaving together powerful visual testimonies of the past with current celebrations of age-old traditions, Mexico's history and culture come marvelously alive, shaping and reshaping the nation's path as it moves into the 21st century.

Video
ID : 1
Format : AVC
Format/Info : Advanced Video Codec
Format profile : High@L4.1
Format settings, CABAC : Yes
Format settings, ReFrames : 8 frames
Muxing mode : Header stripping
Codec ID : V_MPEG4/ISO/AVC
Duration : 41mn 31s
Bit rate : 4 469 Kbps
Width : 1 280 pixels
Height : 720 pixels
Display aspect ratio : 16:9
Frame rate : 29.970 fps
Color space : YUV
Chroma subsampling : 4:2:0
Bit depth : 8 bits
Scan type : Progressive
Bits/(Pixel*Frame) : 0.162
Stream size : 1.30 GiB (89%)
Language : English

Audio
ID : 2
Format : AC-3
Format/Info : Audio Coding 3
Mode extension : CM (complete main)
Muxing mode : Header stripping
Codec ID : A_AC3
Duration : 41mn 31s
Bit rate mode : Constant
Bit rate : 448 Kbps
Channel(s) : 6 channels
Channel positions : Front: L C R, Side: L R, LFE
Sampling rate : 48.0 KHz
Bit depth : 16 bits
Compression mode : Lossy
Stream size : 133 MiB (9%)


IMAX - Mexico (1997)

IMAX - Mexico (1997)


Feel free to contact me when links are dead