ITV - Paul McCartney and Wings: Band on the Run (2010)

Posted By: Polik88
ITV - Paul McCartney and Wings: Band on the Run (2010)

ITV - Paul McCartney and Wings: Band on the Run (2010)
PDTV | English | AVI/XVID 25.000 fps 1979 Kbps | 704x400 | MP3 128 Kbps 48.0 khz | 46mn 21s | 701 MB
Genre: Documentary

In this one hour documentary Dermot O’Leary meets Sir Paul McCartney to hear about the making of the 1973 classic Wings album Band on the Run. Dermot hears how McCartney flew out to Lagos in Nigeria to make the record – even though two members of his band resigned before the flight Arriving there, the former Beatle found the recording studio half finished. McCartney was mugged, lost his demo tapes - and could have lost his life..
But out of this chaos – alongside band members Denny Laine and wife Linda McCartney -Sir Paul went on to create one of the greatest albums of the Seventies. The title track Band on The Run and Jet both went on to be massive hit singles while the album became a Grammy winner.
The programme also hears – from those who were there – about the shooting of the famous album cover, which featured stars of the day including boxer John Conteh and entertainer Kenny Lynch.
If Paul will be remembered for anything post-Beatles, it's this album. Even though he had to go all over creation to record it, the trip was obviously worthwhile, bringing forth gems like "Helen Wheels," "Jet," and the title track. Everything was in place, the melodies, the pop smarts, and a real studio production. The amazement was that Wings actually consisted of Paul and Linda with guitarist Denny Laine; Paul played most everything on the record. Regardless, it was his return–finally–to greatness. –Chris Nickson
General
Complete name : ITV.Paul.McCartney.and.Wings.Band.on.the.Run.avi
Format : AVI
Format/Info : Audio Video Interleave
File size : 701 MiB
Duration : 46mn 21s
Overall bit rate : 2 114 Kbps
Writing application : VirtualDubMod 1.5.4.1 (build 2178/release)
Writing library : VirtualDubMod build 2178/release

Video
ID : 0
Format : MPEG-4 Visual
Format profile : Advanced Simple@L5
Format settings, BVOP : No
Format settings, QPel : No
Format settings, GMC : No warppoints
Format settings, Matrix : Custom
Codec ID : XVID
Codec ID/Hint : XviD
Duration : 46mn 21s
Bit rate : 1 979 Kbps
Width : 704 pixels
Height : 400 pixels
Display aspect ratio : 16:9
Frame rate : 25.000 fps
Resolution : 8 bits
Colorimetry : 4:2:0
Scan type : Progressive
Bits/(Pixel*Frame) : 0.281
Stream size : 656 MiB (94%)
Writing library : XviD 1.2.1 (UTC 2008-12-04)

Audio
ID : 1
Format : MPEG Audio
Format version : Version 1
Format profile : Layer 3
Mode : Joint stereo
Format_Settings_ModeExtension : MS Stereo
Codec ID : 55
Codec ID/Hint : MP3
Duration : 46mn 21s
Bit rate mode : Constant
Bit rate : 128 Kbps
Channel(s) : 2 channels
Sampling rate : 48.0 KHz
Stream size : 42.4 MiB (6%)
Alignment : Aligned on interleaves
Interleave, duration : 80 ms (2.00 video frames)
Interleave, preload duration : 504 ms
Writing library : LAME3.98r
Encoding settings : -m j -V 4 -q 2 -lowpass 17 -b 128

Screenshots

ITV - Paul McCartney and Wings: Band on the Run (2010)

ITV - Paul McCartney and Wings: Band on the Run (2010)

ITV - Paul McCartney and Wings: Band on the Run (2010)

no mirrors please, Follow The Rules
Visit Polik88 Blog Here
no password