I Remember / Amarcord (1973)

Posted By: Rare-1
I Remember / Amarcord (1973)

I Remember / Amarcord (1973)
BRRip | MKV | 1024 x 544 | AVC @ 2000 Kbps | 110 min | 2.07 Gb
Audio: #1 Italian, AC3 1.0 ch @ 192 Kbps, #2 English, AC3 2.0 ch @ 192 Kbps (Commentary) | Subs: English, (embedded in MKV)
Genre: Comedy, Drama | Italy

A year in the life of a small Italian coastal town in the nineteen-thirties, as is recalled by a director with a superstar's access to the resources of the Italian film industry and a piper's command over our imaginations. Federico Fellini's film combines the free form and make-believe splendor with the comic, bittersweet feeling for character and narrative we remember from some of his best films of the 1950s. The town in the film is based on Rimini, where Mr. Fellini grew up. Yet there is now something magical, larger-than-life about the town, its citizens and many of the things that happen to them.

IMDB 8.0/10 from 24541 users

Director: Federico Fellini
Writer: Federico Fellini (story), Tonino Guerra (story), Federico Fellini (screenplay), Tonino Guerra (screenplay)
Actors: Pupella Maggio, Armando Brancia, Magali Noël, Ciccio Ingrassia
Rated: R
Runtime: 123 min

I Remember / Amarcord (1973)

I Remember / Amarcord (1973)

I Remember / Amarcord (1973)

I Remember / Amarcord (1973)

I Remember / Amarcord (1973)


I Remember / Amarcord (1973)


More Screenshots:

I Remember / Amarcord (1973)



General
Unique ID : 214338909352515470315628387734864939397 (0xA1402C20E5019E8089E6DCC99AA24985)
Complete name : G:\1973 - Amarcord\Amarcord.mkv
Format : Matroska
Format version : Version 4 / Version 2
File size : 2.07 GiB
Duration : 2h 3mn
Overall bit rate : 2 389 Kbps
Encoded date : UTC 2014-09-07 01:31:26
Writing application : mkvmerge v6.9.1 ('Blue Panther') 32bit built on Apr 18 2014 18:15:44
Writing library : libebml v1.3.0 + libmatroska v1.4.1

Video
ID : 1
Format : AVC
Format/Info : Advanced Video Codec
Format profile : High@L4.1
Format settings, CABAC : Yes
Format settings, ReFrames : 6 frames
Codec ID : V_MPEG4/ISO/AVC
Duration : 2h 3mn
Bit rate : 2 000 Kbps
Width : 1 024 pixels
Original width : 1 008 pixels
Height : 560 pixels
Original height : 544 pixels
Display aspect ratio : 1.85:1
Original display aspect ratio : 1.85:1
Frame rate mode : Constant
Frame rate : 23.976 fps
Color space : YUV
Chroma subsampling : 4:2:0
Bit depth : 8 bits
Scan type : Progressive
Bits/(Pixel*Frame) : 0.145
Stream size : 1.69 GiB (82%)
Writing library : x264 core 130 r2273 b3065e6
Encoding settings : cabac=1 / ref=7 / deblock=1:-1:-1 / analyse=0x3:0x133 / me=umh / subme=10 / psy=1 / psy_rd=1.20:0.00 / mixed_ref=1 / me_range=28 / chroma_me=1 / trellis=2 / 8x8dct=1 / cqm=0 / deadzone=21,11 / fast_pskip=1 / chroma_qp_offset=-5 / threads=3 / lookahead_threads=1 / sliced_threads=0 / nr=0 / decimate=1 / interlaced=0 / bluray_compat=0 / constrained_intra=0 / bframes=5 / b_pyramid=1 / b_adapt=2 / b_bias=0 / direct=1 / weightb=1 / open_gop=0 / weightp=2 / keyint=240 / keyint_min=24 / scenecut=40 / intra_refresh=0 / rc_lookahead=70 / rc=2pass / mbtree=0 / bitrate=2000 / ratetol=5.0 / qcomp=1.00 / qpmin=0 / qpmax=69 / qpstep=4 / cplxblur=20.0 / qblur=0.5 / vbv_maxrate=62500 / vbv_bufsize=78125 / nal_hrd=none / ip_ratio=1.40 / pb_ratio=1.30 / aq=1:1.00
Language : English
Default : Yes
Forced : No
Color primaries : BT.709
Transfer characteristics : BT.709
Matrix coefficients : BT.709

Audio #1
ID : 2
Format : AC-3
Format/Info : Audio Coding 3
Mode extension : CM (complete main)
Format settings, Endianness : Big
Codec ID : A_AC3
Duration : 2h 3mn
Bit rate mode : Constant
Bit rate : 192 Kbps
Channel(s) : 1 channel
Channel positions : Front: C
Sampling rate : 48.0 KHz
Bit depth : 16 bits
Compression mode : Lossy
Stream size : 170 MiB (8%)
Language : Italian
Default : Yes
Forced : No

Audio #2
ID : 3
Format : AC-3
Format/Info : Audio Coding 3
Mode extension : CM (complete main)
Format settings, Endianness : Big
Codec ID : A_AC3
Duration : 2h 3mn
Bit rate mode : Constant
Bit rate : 192 Kbps
Channel(s) : 2 channels
Channel positions : Front: L R
Sampling rate : 48.0 KHz
Bit depth : 16 bits
Compression mode : Lossy
Stream size : 170 MiB (8%)
Title : commentary
Language : English
Default : No
Forced : No

Text
ID : 4
Format : VobSub
Muxing mode : zlib
Codec ID : S_VOBSUB
Codec ID/Info : The same subtitle format used on DVDs
Language : English
Default : Yes
Forced : No


Many Thanks to Original uploader.


For More Rare Movies Check out my blog!

Download Links :

No Mirrors Please