Subcategories

Identicals / Brand New-U (2015)

Posted By: Without
Identicals / Brand New-U (2015)

Identicals / Brand New-U (2015)
WEBRip 720p | MKV | 1280x720 | AVC@3644 kb/s | English AC3@640 kb/s
Subs: English | 6 channels | 1 h 40 min | 3.00 GB
WEBRip 1080p | MKV | 1920x1080 | AVC@11.7 Mb/s | English AC3@640 kb/s
Subs: English | 6 channels | 1 h 40 min | 8.61 GB
Genre: Sci-Fi

None Of Us Are As Unique As We Think. Brand New-U is a highly unconventional romantic thriller: an obsessive love story stripped down and re-arranged into the looping logic of a nightmare.

IMDB - 1 nomination


General
Identicals.2015.720p.WEB.H264-STRiFE\identicals.2015.720p.web.h264-strife.mkv
Format : Matroska
Format version : Version 4 / Version 2
File size : 3.00 GiB
Duration : 1 h 40 min
Overall bit rate mode : Variable
Overall bit rate : 4 286 kb/s
Encoded date : UTC 2017-09-01 20:11:37
Writing application : mkvmerge v11.0.0 ('Alive') 64bit
Writing library : libebml v1.3.4 + libmatroska v1.4.5

Video
ID : 1
Format : AVC
Format/Info : Advanced Video Codec
Format profile : High@L3.1
Format settings, CABAC : Yes
Format settings, ReFrames : 5 frames
Codec ID : V_MPEG4/ISO/AVC
Duration : 1 h 40 min
Bit rate mode : Variable
Bit rate : 3 644 kb/s
Maximum bit rate : 4 500 kb/s
Width : 1 280 pixels
Height : 720 pixels
Display aspect ratio : 16:9
Frame rate mode : Constant
Frame rate : 23.976 (24000/1001) FPS
Color space : YUV
Chroma subsampling : 4:2:0
Bit depth : 8 bits
Scan type : Progressive
Bits/(Pixel*Frame) : 0.165
Stream size : 2.55 GiB (85%)
Language : English
Default : Yes
Forced : No
Color range : Limited
Color primaries : BT.709
Transfer characteristics : BT.709
Matrix coefficients : BT.709

Audio
ID : 2
Format : E-AC-3
Format/Info : Enhanced Audio Coding 3
Format settings, Endianness : Big
Codec ID : A_EAC3
Duration : 1 h 40 min
Bit rate mode : Constant
Bit rate : 640 kb/s
Channel(s) : 6 channels
Channel positions : Front: L C R, Side: L R, LFE
Sampling rate : 48.0 kHz
Frame rate : 187.500 FPS (256 spf)
Compression mode : Lossy
Stream size : 459 MiB (15%)
Language : English
Default : Yes
Forced : No

Text
ID : 3
Format : UTF-8
Codec ID : S_TEXT/UTF8
Codec ID/Info : UTF-8 Plain Text
Duration : 1 h 33 min
Bit rate : 36 b/s
Count of elements : 906
Stream size : 24.7 KiB (0%)
Language : English
Default : No
Forced : No

General
Identicals.2015.1080p.WEB.H264-STRiFE\identicals.2015.1080p.web.h264-strife.mkv
Format : Matroska
Format version : Version 4 / Version 2
File size : 8.61 GiB
Duration : 1 h 40 min
Overall bit rate mode : Variable
Overall bit rate : 12.3 Mb/s
Encoded date : UTC 2017-09-01 20:11:52
Writing application : mkvmerge v11.0.0 ('Alive') 64bit
Writing library : libebml v1.3.4 + libmatroska v1.4.5

Video
ID : 1
Format : AVC
Format/Info : Advanced Video Codec
Format profile : High@L4
Format settings, CABAC : Yes
Format settings, ReFrames : 4 frames
Codec ID : V_MPEG4/ISO/AVC
Duration : 1 h 40 min
Bit rate mode : Variable
Bit rate : 11.7 Mb/s
Maximum bit rate : 15.0 Mb/s
Width : 1 920 pixels
Height : 1 080 pixels
Display aspect ratio : 16:9
Frame rate mode : Constant
Frame rate : 23.976 (24000/1001) FPS
Color space : YUV
Chroma subsampling : 4:2:0
Bit depth : 8 bits
Scan type : Progressive
Bits/(Pixel*Frame) : 0.234
Stream size : 8.16 GiB (95%)
Language : English
Default : Yes
Forced : No
Color range : Limited
Color primaries : BT.709
Transfer characteristics : BT.709
Matrix coefficients : BT.709

Audio
ID : 2
Format : E-AC-3
Format/Info : Enhanced Audio Coding 3
Format settings, Endianness : Big
Codec ID : A_EAC3
Duration : 1 h 40 min
Bit rate mode : Constant
Bit rate : 640 kb/s
Channel(s) : 6 channels
Channel positions : Front: L C R, Side: L R, LFE
Sampling rate : 48.0 kHz
Frame rate : 187.500 FPS (256 spf)
Compression mode : Lossy
Stream size : 459 MiB (5%)
Language : English
Default : Yes
Forced : No

Text
ID : 3
Format : UTF-8
Codec ID : S_TEXT/UTF8
Codec ID/Info : UTF-8 Plain Text
Duration : 1 h 33 min
Bit rate : 36 b/s
Count of elements : 906
Stream size : 24.7 KiB (0%)
Language : English
Default : No
Forced : No


WEBRip 720p Screenshots

Identicals / Brand New-U (2015)

Identicals / Brand New-U (2015)

Identicals / Brand New-U (2015)


WEBRip 1080p Screenshots

Identicals / Brand New-U (2015)

Identicals / Brand New-U (2015)

Identicals / Brand New-U (2015)


Come Visit My Blog (•‿•)