Il domani tra di noi (2017)

Posted By: JohnSmith
720p (HD) / BDRip IMDb
Il domani tra di noi (2017)

Il domani tra di noi / The Mountain Between Us (2017)
BDRip | MKV / AVC@14480 kb/s | 848x356 | 1h 51mn | 1.66 GB
Italian (dubbed): AC3, 640 kb/s (6 ch) | Subtitles: Italian (forced, full)
BDRip 720p | MKV / AVC@3475 kb/s | 1280x536 | 1h 51mn | 3.32 GB
Italian (dubbed): DTS, 768 kb/s (6 ch) | Subtitles: Italian (forced, full)
Genre: Action | Adventure | Drama | Romance | Thriller

Alex e Ben, una coppia di sconosciuti, sopravvivono a un incidente aereo sulle montagne innevate degli Stati Uniti. Gravemente feriti, i due sono costretti a fidarsi ciecamente l'uno dell'altra e a trovare un modo per mettersi in salvo e proteggersi dagli elementi atmosferici.

IMDB - 1 nomination.



General
Unique ID : 203672252320962397416115600988057316008 (0x9939D955595C7D0BBFE4C1E6B7772AA8)
Complete name : A:\Il.Domani.Tra.Di.Noi.2017.iTA.Bluray.480p.x264-CYBER.mkv
Format : Matroska
Format version : Version 4 / Version 2
File size : 1.66 GiB
Duration : 1 h 51 min
Overall bit rate : 2 121 kb/s
Encoded date : UTC 2018-01-21 18:39:26
Writing application : mkvmerge v8.3.0 ('Over the Horizon') 64bit
Writing library : libebml v1.3.1 + libmatroska v1.4.2

Video
ID : 1
Format : AVC
Format/Info : Advanced Video Codec
Format profile : High@L4.1
Format settings, CABAC : Yes
Format settings, ReFrames : 5 frames
Codec ID : V_MPEG4/ISO/AVC
Duration : 1 h 51 min
Bit rate : 1 480 kb/s
Width : 848 pixels
Height : 356 pixels
Display aspect ratio : 2.40:1
Frame rate mode : Constant
Frame rate : 23.976 (24000/1001) FPS
Color space : YUV
Chroma subsampling : 4:2:0
Bit depth : 8 bits
Scan type : Progressive
Bits/(Pixel*Frame) : 0.204
Stream size : 1.16 GiB (70%)
Writing library : x264 core 152 r2851 ba24899
Language : English
Default : Yes
Forced : No

Audio
ID : 2
Format : AC-3
Format/Info : Audio Coding 3
Format settings, Endianness : Big
Codec ID : A_AC3
Duration : 1 h 51 min
Bit rate mode : Constant
Bit rate : 640 kb/s
Channel(s) : 6 channels
Channel positions : Front: L C R, Side: L R, LFE
Sampling rate : 48.0 kHz
Frame rate : 31.250 FPS (1536 spf)
Bit depth : 16 bits
Compression mode : Lossy
Stream size : 512 MiB (30%)
Language : Italian
Service kind : Complete Main
Default : Yes
Forced : No

Text #1
ID : 3
Format : UTF-8
Codec ID : S_TEXT/UTF8
Codec ID/Info : UTF-8 Plain Text
Duration : 1 h 50 min
Bit rate : 0 b/s
Count of elements : 2
Stream size : 48.0 Bytes (0%)
Title : FORCED
Language : Italian
Default : Yes
Forced : No

Text #2
ID : 4
Format : UTF-8
Codec ID : S_TEXT/UTF8
Codec ID/Info : UTF-8 Plain Text
Duration : 1 h 51 min
Bit rate : 28 b/s
Count of elements : 981
Stream size : 23.4 KiB (0%)
Title : REGOLARI
Language : Italian
Default : No
Forced : No





General
Unique ID : 251354698118577423923434265345042446349 (0xBD19276B07AE39F2A80436987E70780D)
Complete name : A:\Il.Domani.Tra.Di.Noi.2017.iTA.Bluray.720p.x264-CYBER.mkv
Format : Matroska
Format version : Version 4 / Version 2
File size : 3.32 GiB
Duration : 1 h 51 min
Overall bit rate : 4 246 kb/s
Encoded date : UTC 2018-01-21 18:38:48
Writing application : mkvmerge v8.3.0 ('Over the Horizon') 64bit
Writing library : libebml v1.3.1 + libmatroska v1.4.2

Video
ID : 1
Format : AVC
Format/Info : Advanced Video Codec
Format profile : High@L4.1
Format settings, CABAC : Yes
Format settings, ReFrames : 5 frames
Codec ID : V_MPEG4/ISO/AVC
Duration : 1 h 51 min
Bit rate : 3 475 kb/s
Width : 1 280 pixels
Height : 536 pixels
Display aspect ratio : 2.40:1
Frame rate mode : Constant
Frame rate : 23.976 (24000/1001) FPS
Color space : YUV
Chroma subsampling : 4:2:0
Bit depth : 8 bits
Scan type : Progressive
Bits/(Pixel*Frame) : 0.211
Stream size : 2.71 GiB (82%)
Writing library : x264 core 152 r2851 ba24899
Language : English
Default : Yes
Forced : No

Audio
ID : 2
Format : DTS
Format/Info : Digital Theater Systems
Mode : 16
Format settings, Endianness : Big
Codec ID : A_DTS
Duration : 1 h 51 min
Bit rate mode : Constant
Bit rate : 768 kb/s
Channel(s) : 6 channels
Channel positions : Front: L C R, Side: L R, LFE
Sampling rate : 48.0 kHz
Frame rate : 93.750 FPS (512 spf)
Bit depth : 24 bits
Compression mode : Lossy
Stream size : 614 MiB (18%)
Language : Italian
Default : Yes
Forced : No

Text #1
ID : 3
Format : UTF-8
Codec ID : S_TEXT/UTF8
Codec ID/Info : UTF-8 Plain Text
Duration : 1 h 50 min
Bit rate : 0 b/s
Count of elements : 2
Stream size : 48.0 Bytes (0%)
Title : FORCED
Language : Italian
Default : Yes
Forced : No

Text #2
ID : 4
Format : UTF-8
Codec ID : S_TEXT/UTF8
Codec ID/Info : UTF-8 Plain Text
Duration : 1 h 51 min
Bit rate : 28 b/s
Count of elements : 981
Stream size : 23.4 KiB (0%)
Title : REGOLARI
Language : Italian
Default : No
Forced : No




Screenshots BDRip

Il domani tra di noi (2017)

Il domani tra di noi (2017)

Il domani tra di noi (2017)


Screenshots BDRip 720p

Il domani tra di noi (2017)

Il domani tra di noi (2017)

Il domani tra di noi (2017)