Il sole a mezzanotte / Midnight Sun (2018)

Posted By: JohnSmith
SD / CAMRip IMDb
Il sole a mezzanotte / Midnight Sun (2018)

Il sole a mezzanotte / Midnight Sun (2018)
CAMRip | MKV / XviD@2500 kb/s | 704x400 | 1h 26mn | 1.58 GB | Italian (dubbed): MP3, 128 kb/s (2 ch)
Genre: Drama | Romance

La diciassettenne Katie è costretta sin dall'infanzia a vivere nel buio della sua abitazione durante il giorno a causa di una rara malattia che rende per lei letale anche la più piccola quantità di luce solare. Il destino però porta sulla sua strada Charlie, quel bambino che osservava tutti i giorni dalla finestra e che, oramai adolescente, le permetterà di conoscere l'amore in un modo del tutto speciale.




General
Unique ID : 191193102659042148738426295305753622233 (0x8FD673C091EC6391B7C18034D1A476D9)
Complete name : A:\Il.sole.a.mezzanotte.2018.iTALiAN.MD.HDCam.XViD-DDLV.mkv
Format : Matroska
Format version : Version 4 / Version 2
File size : 1.58 GiB
Duration : 1 h 26 min
Overall bit rate : 2 629 kb/s
Encoded date : UTC 2018-04-15 14:44:30
Writing application : mkvmerge v8.3.0 ('Over the Horizon') 64bit
Writing library : libebml v1.3.1 + libmatroska v1.4.2

Video
ID : 1
Format : MPEG-4 Visual
Format profile : Simple@L3
Format settings, BVOP : No
Format settings, QPel : No
Format settings, GMC : No warppoints
Format settings, Matrix : Default (H.263)
Codec ID : V_MS/VFW/FOURCC / XVID
Codec ID/Hint : XviD
Duration : 1 h 26 min
Bit rate : 2 496 kb/s
Width : 704 pixels
Height : 400 pixels
Display aspect ratio : 16:9
Frame rate mode : Constant
Frame rate : 59.940 (59940/1000) FPS
Color space : YUV
Chroma subsampling : 4:2:0
Bit depth : 8 bits
Scan type : Progressive
Compression mode : Lossy
Bits/(Pixel*Frame) : 0.148
Stream size : 1.50 GiB (95%)
Writing library : XviD 67
Language : Italian
Default : Yes
Forced : No

Audio
ID : 2
Format : MPEG Audio
Format version : Version 1
Format profile : Layer 3
Mode : Joint stereo
Mode extension : MS Stereo
Codec ID : A_MPEG/L3
Codec ID/Hint : MP3
Duration : 1 h 26 min
Bit rate mode : Constant
Bit rate : 128 kb/s
Channel(s) : 2 channels
Sampling rate : 44.1 kHz
Frame rate : 38.281 FPS (1152 spf)
Compression mode : Lossy
Stream size : 79.0 MiB (5%)
Writing library : LAME3.98r
Encoding settings : -m j -V 4 -q 3 -lowpass 17 -b 128
Language : Italian
Default : Yes
Forced : Yes




Screenshots

Il sole a mezzanotte / Midnight Sun (2018)

Il sole a mezzanotte / Midnight Sun (2018)

Il sole a mezzanotte / Midnight Sun (2018)