I'm Now: The Story of Mudhoney (2012)

Posted By: vivid23
I'm Now: The Story of Mudhoney (2012)

I'm Now: The Story of Mudhoney (2012)
DVD5 | 720x480 | VOB/MPEG @ 5035 Kbps | 100mn | Audio: English AC3 192 kbps, 2 channels | Subs: None | 4.36 GB
Genre: Documentary

This documentary tells the story of Mudhoney from their very beginnings, to following them on their recent world tour and everything in between. Complete with testimonials from friends, music industry veterans and musicians such as Pearl Jam's Stone Gossard and Jeff Ament, Sonic Youth's Kim Gordon and Thurston Moore, Soundgarden's Kim Thayil and Mudhoney themselves. This is the true story of the founding fathers of Grunge.

More info

Video
ID : 224 (0xE0)
Format : MPEG Video
Format version : Version 2
Format profile : Main@Main
Format settings, BVOP : Yes
Format settings, Matrix : Default
Format settings, GOP : M=3, N=15
Duration : 26mn 50s
Bit rate mode : Variable
Bit rate : 5 035 Kbps
Nominal bit rate : 7 500 Kbps
Width : 720 pixels
Height : 480 pixels
Display aspect ratio : 16:9
Frame rate : 29.970 fps
Standard : NTSC
Color space : YUV
Chroma subsampling : 4:2:0
Bit depth : 8 bits
Scan type : Interlaced
Scan order : Bottom Field First
Compression mode : Lossy
Bits/(Pixel*Frame) : 0.486
Stream size : 967 MiB (94%)

Audio
ID : 128 (0x80)
Format : AC-3
Format/Info : Audio Coding 3
Mode extension : CM (complete main)
Duration : 26mn 50s
Bit rate mode : Constant
Bit rate : 192 Kbps
Channel(s) : 2 channels
Channel positions : Front: L R
Sampling rate : 48.0 KHz
Bit depth : 16 bits
Compression mode : Lossy
Stream size : 36.9 MiB (4%)

Menu


I'm Now: The Story of Mudhoney (2012)

I'm Now: The Story of Mudhoney (2012)


Feel free to contact me when links are dead