In the Eye of the Hurricane (1971)

Posted By: Tavaz
720p (HD) / BDRip IMDb
In the Eye of the Hurricane (1971)

In the Eye of the Hurricane (1971)
BDRip | MKV | 1280x720 | Italian | H264 @ 5607 kbps | AC-3 @ 640 kbps | 1 h 40 min | 4.37 GiB
Subtitles: English
Genre: Thriller, Romance

Ruth and Michel separate after Ruth finds another man, Paul. Ruth and Paul go to her sunny, idyllic beach side villa to spend summer. They are having a great time together, and then things start happening. The brakes of the car fail, and Ruth narrowly escapes death. The driving equipment goes faulty, and Ruth almost drowns. Michel turns up at their doorstep for an uninvited social call, and Paul asks him in. Ruth suspects Michel of being the person behind the mechanical faults of the car and the diving equipment, but Paul dismisses such a possibility - but he does suggest it to Michel. Then, the heat does go up.

4d9f395bd97c4861a566d84d2bd7d6f6.mkv (4.4 GB)



General
Unique ID : 335337513168227482582767366752142922554 (0xFC47A7E3144764A8ED41662CCB84933A)
Complete name : ./4d9f395bd97c4861a566d84d2bd7d6f6.mkv
Format : Matroska
Format version : Version 4 / Version 2
File size : 4.37 GiB
Duration : 1 h 40 min
Overall bit rate : 6 249 kb/s
Encoded date : UTC 2018-04-26 12:20:46
Writing application : mkvmerge v22.0.0 ('At The End Of The World') 64-bit
Writing library : libebml v1.3.5 + libmatroska v1.4.8

Video
ID : 2
Format : AVC
Format/Info : Advanced Video Codec
Format profile : High@L4.1
Format settings : CABAC / 5 Ref Frames
Format settings, CABAC : Yes
Format settings, RefFrames : 5 frames
Codec ID : V_MPEG4/ISO/AVC
Duration : 1 h 40 min
Bit rate : 5 607 kb/s
Width : 1 280 pixels
Height : 720 pixels
Display aspect ratio : 16:9
Frame rate mode : Constant
Frame rate : 23.976 (24000/1001) FPS
Color space : YUV
Chroma subsampling : 4:2:0
Bit depth : 8 bits
Scan type : Progressive
Bits/(Pixel*Frame) : 0.254
Stream size : 3.92 GiB (90%)
Writing library : x264 core 155 r2901 7d0ff22
Encoding settings : cabac=1 / ref=5 / deblock=1:-3:-3 / analyse=0x3:0x133 / me=umh / subme=8 / psy=1 / psy_rd=1.00:0.00 / mixed_ref=1 / me_range=16 / chroma_me=1 / trellis=1 / 8x8dct=1 / cqm=0 / deadzone=21,11 / fast_pskip=0 / chroma_qp_offset=-2 / threads=22 / lookahead_threads=3 / sliced_threads=0 / nr=0 / decimate=1 / interlaced=0 / bluray_compat=0 / constrained_intra=0 / bframes=3 / b_pyramid=2 / b_adapt=1 / b_bias=0 / direct=3 / weightb=1 / open_gop=0 / weightp=2 / keyint=250 / keyint_min=23 / scenecut=40 / intra_refresh=0 / rc_lookahead=50 / rc=2pass / mbtree=1 / bitrate=5607 / ratetol=1.0 / qcomp=0.60 / qpmin=0 / qpmax=69 / qpstep=4 / cplxblur=20.0 / qblur=0.5 / vbv_maxrate=62500 / vbv_bufsize=78125 / nal_hrd=none / filler=0 / ip_ratio=1.40 / aq=1:1.00
Default : Yes
Forced : No

Audio
ID : 3
Format : AC-3
Format/Info : Audio Coding 3
Format settings, Endianness : Big
Codec ID : A_AC3
Duration : 1 h 40 min
Bit rate mode : Constant
Bit rate : 640 kb/s
Channel(s) : 2 channels
Channel positions : Front: L R
Sampling rate : 48.0 kHz
Frame rate : 31.250 FPS (1536 SPF)
Bit depth : 16 bits
Compression mode : Lossy
Stream size : 458 MiB (10%)
Language : Italian
Service kind : Complete Main
Default : Yes
Forced : No

Text
ID : 1
Format : UTF-8
Codec ID : S_TEXT/UTF8
Codec ID/Info : UTF-8 Plain Text
Duration : 1 h 36 min
Bit rate : 29 b/s
Count of elements : 753
Stream size : 20.9 KiB (0%)
Language : English
Default : Yes
Forced : No

Menu
00:00:00.000 : en:00:00:00.000
00:07:13.099 : en:00:07:13.099
00:19:46.894 : en:00:19:46.894
00:37:37.881 : en:00:37:37.881
00:50:07.838 : en:00:50:07.838
01:02:31.581 : en:01:02:31.581
01:15:46.000 : en:01:15:46.000
01:29:44.963 : en:01:29:44.963





In the Eye of the Hurricane (1971)


In the Eye of the Hurricane (1971)


In the Eye of the Hurricane (1971)


In the Eye of the Hurricane (1971)


In the Eye of the Hurricane (1971)