In Dubious Battle (2016)

Posted By: Without
In Dubious Battle (2016)

In Dubious Battle (2016)
BDRip | MKV | 720x300 | AVC@688 kb/s | English AAC@116 kb/s | 2 channels | 1 h 53 min | 652 MB
BRRip | AVI | 720x300 | XviD@1561 kb/s | English AC3@448 kb/s | 6 channels | 1 h 53 min | 1.59 GB
BDRip 720p | MKV | 1280x536 | AVC@5408 kb/s | English DTS@1509 kb/s | 6 channels | 1 h 53 min | 5.46 GB
BDRip 1080p | MKV | 1920x800 | AVC@8548 kb/s | English DTS@1509 kb/s | 6 channels | 1 h 53 min | 7.94 GB
BRRip 720p | MKV | 1280x536 | HEVC@2920 kb/s | English DTS@1509 kb/s | 6 channels | 1 h 53 min | 3.56 GB
BRRip 1080p | MKV | 1920x800 | HEVC@3902 kb/s | English DTS@1509 kb/s | 6 channels | 1 h 53 min | 4.36 GB
Genre: Drama

An activist gets caught up in the labor movement for farm workers in California during the 1930s.



General
Complete name : In.Dubious.Battle.2016.BDRip.x264-ROVERS[rarbg]\In.Dubious.Battle.2016.BDRip.x264-ROVERS.mkv
Format : Matroska
Format version : Version 4 / Version 2
File size : 652 MiB
Duration : 1 h 53 min
Overall bit rate : 806 kb/s
Encoded date : UTC 2017-03-04 20:46:29
Writing application : mkvmerge v8.3.0 ('Over the Horizon') 64bit
Writing library : libebml v1.3.1 + libmatroska v1.4.2

Video
ID : 1
Format : AVC
Format/Info : Advanced Video Codec
Format profile : High@L3.1
Format settings, CABAC : Yes
Format settings, ReFrames : 5 frames
Codec ID : V_MPEG4/ISO/AVC
Duration : 1 h 53 min
Bit rate : 688 kb/s
Width : 720 pixels
Height : 300 pixels
Display aspect ratio : 2.40:1
Frame rate mode : Constant
Frame rate : 23.976 FPS
Color space : YUV
Chroma subsampling : 4:2:0
Bit depth : 8 bits
Scan type : Progressive
Bits/(Pixel*Frame) : 0.133
Stream size : 556 MiB (85%)
Title : X264
Writing library : x264 core 148 r2744 b97ae06
Encoding settings : cabac=1 / ref=5 / deblock=1:-2:-2 / analyse=0x3:0x113 / me=hex / subme=8 / psy=1 / psy_rd=0.90:0.00 / mixed_ref=1 / me_range=16 / chroma_me=1 / trellis=2 / 8x8dct=1 / cqm=0 / deadzone=21,11 / fast_pskip=1 / chroma_qp_offset=-2 / threads=9 / lookahead_threads=1 / sliced_threads=0 / nr=0 / decimate=1 / interlaced=0 / bluray_compat=0 / constrained_intra=0 / bframes=3 / b_pyramid=2 / b_adapt=1 / b_bias=0 / direct=3 / weightb=1 / open_gop=0 / weightp=2 / keyint=250 / keyint_min=23 / scenecut=40 / intra_refresh=0 / rc_lookahead=50 / rc=crf / mbtree=1 / crf=19.0 / qcomp=0.60 / qpmin=0 / qpmax=69 / qpstep=4 / ip_ratio=1.40 / aq=1:1.00
Language : English
Default : Yes
Forced : No
Color range : Limited
Matrix coefficients : BT.709

Audio
ID : 2
Format : AAC
Format/Info : Advanced Audio Codec
Format profile : LC
Codec ID : A_AAC
Duration : 1 h 53 min
Bit rate : 116 kb/s
Channel(s) : 2 channels
Channel positions : Front: L R
Sampling rate : 48.0 kHz
Frame rate : 46.875 FPS (1024 spf)
Compression mode : Lossy
Stream size : 94.2 MiB (14%)
Language : English
Default : Yes
Forced : No

Menu
00:00:00.000 : en:00:00:00.000
00:08:16.663 : en:00:08:16.663
00:14:26.115 : en:00:14:26.115
00:20:54.295 : en:00:20:54.295
00:29:04.993 : en:00:29:04.993
00:37:09.811 : en:00:37:09.811
00:46:36.043 : en:00:46:36.043
00:53:51.854 : en:00:53:51.854
01:02:53.520 : en:01:02:53.520
01:06:58.348 : en:01:06:58.348
01:12:50.908 : en:01:12:50.908
01:21:41.730 : en:01:21:41.730
01:26:11.583 : en:01:26:11.583
01:31:28.858 : en:01:31:28.858
01:39:06.357 : en:01:39:06.357
01:46:44.940 : en:01:46:44.940

General
Complete name : In.Dubious.Battle.2016.BRRip.XviD.AC3-RARBG\In.Dubious.Battle.2016.BRRip.XviD.AC3-RARBG.avi
Format : AVI
Format/Info : Audio Video Interleave
File size : 1.59 GiB
Duration : 1 h 53 min
Overall bit rate : 2 018 kb/s
Writing application : Lavf56.40.101
Writing library : VirtualDub build 35491/release

Video
ID : 0
Format : MPEG-4 Visual
Format profile : Simple@L5
Format settings, BVOP : No
Format settings, QPel : No
Format settings, GMC : No warppoints
Format settings, Matrix : Default (H.263)
Codec ID : XVID
Codec ID/Hint : XviD
Duration : 1 h 53 min
Bit rate : 1 561 kb/s
Width : 720 pixels
Height : 300 pixels
Display aspect ratio : 2.40:1
Frame rate : 23.976 (24000/1001) FPS
Color space : YUV
Chroma subsampling : 4:2:0
Bit depth : 8 bits
Scan type : Progressive
Compression mode : Lossy
Bits/(Pixel*Frame) : 0.301
Stream size : 1.23 GiB (77%)
Writing library : Lavc56.60.100

Audio
ID : 1
Format : AC-3
Format/Info : Audio Coding 3
Mode extension : CM (complete main)
Format settings, Endianness : Big
Codec ID : 2000
Duration : 1 h 53 min
Bit rate mode : Constant
Bit rate : 448 kb/s
Channel(s) : 6 channels
Channel positions : Front: L C R, Side: L R, LFE
Sampling rate : 48.0 kHz
Frame rate : 31.250 FPS (1536 spf)
Bit depth : 16 bits
Compression mode : Lossy
Stream size : 362 MiB (22%)
Alignment : Aligned on interleaves
Interleave, duration : 42 ms (1.00 video frame)
Interleave, preload duration : 512 ms

General
Complete name : In.Dubious.Battle.2016.720p.BluRay.x264-ROVERS\In.Dubious.Battle.2016.720p.BluRay.x264-ROVERS.mkv
Format : Matroska
Format version : Version 4 / Version 2
File size : 5.46 GiB
Duration : 1 h 53 min
Overall bit rate : 6 917 kb/s
Encoded date : UTC 2017-03-04 20:20:24
Writing application : mkvmerge v8.3.0 ('Over the Horizon') 64bit
Writing library : libebml v1.3.1 + libmatroska v1.4.2

Video
ID : 1
Format : AVC
Format/Info : Advanced Video Codec
Format profile : High@L4.1
Format settings, CABAC : Yes
Format settings, ReFrames : 5 frames
Codec ID : V_MPEG4/ISO/AVC
Duration : 1 h 53 min
Bit rate : 5 408 kb/s
Width : 1 280 pixels
Height : 536 pixels
Display aspect ratio : 2.40:1
Frame rate mode : Constant
Frame rate : 23.976 FPS
Color space : YUV
Chroma subsampling : 4:2:0
Bit depth : 8 bits
Scan type : Progressive
Bits/(Pixel*Frame) : 0.329
Stream size : 4.27 GiB (78%)
Writing library : x264 core 148 r2744 b97ae06
Encoding settings : cabac=1 / ref=5 / deblock=1:0:0 / analyse=0x3:0x133 / me=umh / subme=7 / psy=1 / psy_rd=1.00:0.00 / mixed_ref=1 / me_range=16 / chroma_me=1 / trellis=1 / 8x8dct=1 / cqm=0 / deadzone=21,11 / fast_pskip=0 / chroma_qp_offset=-2 / threads=12 / lookahead_threads=2 / sliced_threads=0 / nr=0 / decimate=1 / interlaced=0 / bluray_compat=0 / constrained_intra=0 / bframes=3 / b_pyramid=2 / b_adapt=1 / b_bias=0 / direct=1 / weightb=1 / open_gop=0 / weightp=2 / keyint=250 / keyint_min=23 / scenecut=40 / intra_refresh=0 / rc_lookahead=40 / rc=2pass / mbtree=1 / bitrate=5408 / ratetol=1.0 / qcomp=0.60 / qpmin=0 / qpmax=69 / qpstep=4 / cplxblur=20.0 / qblur=0.5 / ip_ratio=1.40 / aq=1:1.00
Language : English
Default : Yes
Forced : No

Audio
ID : 2
Format : DTS
Format/Info : Digital Theater Systems
Mode : 16
Format settings, Endianness : Big
Codec ID : A_DTS
Duration : 1 h 53 min
Bit rate mode : Constant
Bit rate : 1 509 kb/s
Channel(s) : 6 channels
Channel positions : Front: L C R, Side: L R, LFE
Sampling rate : 48.0 kHz
Frame rate : 93.750 FPS (512 spf)
Bit depth : 24 bits
Compression mode : Lossy
Stream size : 1.19 GiB (22%)
Language : English
Default : Yes
Forced : No

Menu
00:00:00.000 : en:00:00:00.000
00:08:16.663 : en:00:08:16.663
00:14:26.115 : en:00:14:26.115
00:20:54.295 : en:00:20:54.295
00:29:04.993 : en:00:29:04.993
00:37:09.811 : en:00:37:09.811
00:46:36.043 : en:00:46:36.043
00:53:51.854 : en:00:53:51.854
01:02:53.520 : en:01:02:53.520
01:06:58.348 : en:01:06:58.348
01:12:50.908 : en:01:12:50.908
01:21:41.730 : en:01:21:41.730
01:26:11.583 : en:01:26:11.583
01:31:28.858 : en:01:31:28.858
01:39:06.357 : en:01:39:06.357
01:46:44.940 : en:01:46:44.940

General
Complete name : In.Dubious.Battle.2016.1080p.BluRay.x264-ROVERS[rarbg]\In.Dubious.Battle.2016.1080p.BluRay.x264-ROVERS.mkv
Format : Matroska
Format version : Version 4 / Version 2
File size : 7.95 GiB
Duration : 1 h 53 min
Overall bit rate : 10.1 Mb/s
Encoded date : UTC 2017-03-04 23:10:47
Writing application : mkvmerge v8.3.0 ('Over the Horizon') 64bit
Writing library : libebml v1.3.1 + libmatroska v1.4.2

Video
ID : 1
Format : AVC
Format/Info : Advanced Video Codec
Format profile : High@L4.1
Format settings, CABAC : Yes
Format settings, ReFrames : 5 frames
Codec ID : V_MPEG4/ISO/AVC
Duration : 1 h 53 min
Bit rate : 8 548 kb/s
Width : 1 920 pixels
Height : 800 pixels
Display aspect ratio : 2.40:1
Frame rate mode : Constant
Frame rate : 23.976 FPS
Color space : YUV
Chroma subsampling : 4:2:0
Bit depth : 8 bits
Scan type : Progressive
Bits/(Pixel*Frame) : 0.232
Stream size : 6.75 GiB (85%)
Writing library : x264 core 148 r2744 b97ae06
Encoding settings : cabac=1 / ref=5 / deblock=1:0:0 / analyse=0x3:0x133 / me=umh / subme=7 / psy=1 / psy_rd=1.00:0.00 / mixed_ref=1 / me_range=16 / chroma_me=1 / trellis=1 / 8x8dct=1 / cqm=0 / deadzone=21,11 / fast_pskip=0 / chroma_qp_offset=-2 / threads=12 / lookahead_threads=2 / sliced_threads=0 / nr=0 / decimate=1 / interlaced=0 / bluray_compat=0 / constrained_intra=0 / bframes=3 / b_pyramid=2 / b_adapt=1 / b_bias=0 / direct=1 / weightb=1 / open_gop=0 / weightp=2 / keyint=250 / keyint_min=23 / scenecut=40 / intra_refresh=0 / rc_lookahead=40 / rc=2pass / mbtree=1 / bitrate=8548 / ratetol=1.0 / qcomp=0.60 / qpmin=0 / qpmax=69 / qpstep=4 / cplxblur=20.0 / qblur=0.5 / ip_ratio=1.40 / aq=1:1.00
Language : English
Default : Yes
Forced : No

Audio
ID : 2
Format : DTS
Format/Info : Digital Theater Systems
Mode : 16
Format settings, Endianness : Big
Codec ID : A_DTS
Duration : 1 h 53 min
Bit rate mode : Constant
Bit rate : 1 509 kb/s
Channel(s) : 6 channels
Channel positions : Front: L C R, Side: L R, LFE
Sampling rate : 48.0 kHz
Frame rate : 93.750 FPS (512 spf)
Bit depth : 24 bits
Compression mode : Lossy
Stream size : 1.19 GiB (15%)
Language : English
Default : Yes
Forced : No

Menu
00:00:00.000 : en:00:00:00.000
00:08:16.663 : en:00:08:16.663
00:14:26.115 : en:00:14:26.115
00:20:54.295 : en:00:20:54.295
00:29:04.993 : en:00:29:04.993
00:37:09.811 : en:00:37:09.811
00:46:36.043 : en:00:46:36.043
00:53:51.854 : en:00:53:51.854
01:02:53.520 : en:01:02:53.520
01:06:58.348 : en:01:06:58.348
01:12:50.908 : en:01:12:50.908
01:21:41.730 : en:01:21:41.730
01:26:11.583 : en:01:26:11.583
01:31:28.858 : en:01:31:28.858
01:39:06.357 : en:01:39:06.357
01:46:44.940 : en:01:46:44.940

Video
ID : 1
Format : HEVC
Format/Info : High Efficiency Video Coding
Format profile : Main@L3.1@Main
Codec ID : V_MPEGH/ISO/HEVC
Duration : 1 h 53 min
Bit rate : 2 920 kb/s
Width : 1 280 pixels
Height : 536 pixels
Display aspect ratio : 2.40:1
Frame rate mode : Constant
Frame rate : 23.976 (24000/1001) FPS
Color space : YUV
Chroma subsampling : 4:2:0
Bit depth : 8 bits
Bits/(Pixel*Frame) : 0.177
Stream size : 2.31 GiB (65%)
Writing library : x265 2.1:[Windows][GCC 5.4.0][64 bit] 8bit
Encoding settings : wpp / ctu=64 / min-cu-size=8 / max-tu-size=32 / tu-intra-depth=1 / tu-inter-depth=1 / me=1 / subme=1 / merange=57 / no-rect / no-amp / max-merge=2 / temporal-mvp / early-skip / rskip / rdpenalty=0 / no-tskip / no-tskip-fast / strong-intra-smoothing / no-lossless / no-cu-lossless / no-constrained-intra / fast-intra / open-gop / no-temporal-layers / interlace=0 / keyint=240 / min-keyint=24 / scenecut=40 / rc-lookahead=15 / lookahead-slices=0 / bframes=4 / bframe-bias=0 / b-adapt=0 / ref=2 / limit-refs=3 / no-limit-modes / weightp / no-weightb / aq-mode=1 / qg-size=32 / aq-strength=1.00 / cbqpoffs=0 / crqpoffs=0 / rd=2 / psy-rd=2.00 / rdoq-level=0 / psy-rdoq=0.00 / log2-max-poc-lsb=8 / no-rd-refine / signhide / deblock=0:0 / sao / no-sao-non-deblock / b-pyramid / cutree / no-intra-refresh / rc=abr / bitrate=3000 / qcomp=0.60 / qpmin=0 / qpmax=69 / qpstep=4 / ipratio=1.40 / pbratio=1.30
Default : Yes
Forced : No
Color range : Limited
Color primaries : BT.709
Transfer characteristics : BT.709
Matrix coefficients : BT.709

Audio
ID : 2
Format : DTS
Format/Info : Digital Theater Systems
Mode : 16
Format settings, Endianness : Big
Codec ID : A_DTS
Duration : 1 h 53 min
Bit rate mode : Constant
Bit rate : 1 509 kb/s
Channel(s) : 6 channels
Channel positions : Front: L C R, Side: L R, LFE
Sampling rate : 48.0 kHz
Frame rate : 93.750 FPS (512 spf)
Bit depth : 24 bits
Compression mode : Lossy
Stream size : 1.19 GiB (33%)
Title : Surround
Language : English
Default : Yes
Forced : No

Menu
00:00:00.000 : :00:00:00.000
00:08:16.746 : :00:08:16.663
00:14:26.199 : :00:14:26.115
00:20:54.378 : :00:20:54.295
00:29:04.993 : :00:29:04.993
00:37:09.936 : :00:37:09.811
00:46:36.085 : :00:46:36.043
00:53:51.937 : :00:53:51.854
01:02:53.520 : :01:02:53.520
01:06:58.431 : :01:06:58.348
01:12:50.992 : :01:12:50.908
01:21:41.855 : :01:21:41.730
01:26:11.667 : :01:26:11.583
01:31:28.942 : :01:31:28.858
01:39:06.441 : :01:39:06.357
01:46:44.940 : :01:46:44.940

Video
ID : 1
Format : HEVC
Format/Info : High Efficiency Video Coding
Format profile : Main@L4@Main
Codec ID : V_MPEGH/ISO/HEVC
Duration : 1 h 53 min
Bit rate : 3 902 kb/s
Width : 1 920 pixels
Height : 800 pixels
Display aspect ratio : 2.40:1
Frame rate mode : Constant
Frame rate : 23.976 (24000/1001) FPS
Color space : YUV
Chroma subsampling : 4:2:0
Bit depth : 8 bits
Bits/(Pixel*Frame) : 0.106
Stream size : 3.08 GiB (71%)
Writing library : x265 2.1:[Windows][GCC 5.4.0][64 bit] 8bit
Encoding settings : wpp / ctu=64 / min-cu-size=8 / max-tu-size=32 / tu-intra-depth=1 / tu-inter-depth=1 / me=1 / subme=1 / merange=57 / no-rect / no-amp / max-merge=2 / temporal-mvp / early-skip / rskip / rdpenalty=0 / no-tskip / no-tskip-fast / strong-intra-smoothing / no-lossless / no-cu-lossless / no-constrained-intra / fast-intra / open-gop / no-temporal-layers / interlace=0 / keyint=240 / min-keyint=24 / scenecut=40 / rc-lookahead=15 / lookahead-slices=5 / bframes=4 / bframe-bias=0 / b-adapt=0 / ref=2 / limit-refs=3 / no-limit-modes / weightp / no-weightb / aq-mode=1 / qg-size=32 / aq-strength=1.00 / cbqpoffs=0 / crqpoffs=0 / rd=2 / psy-rd=2.00 / rdoq-level=0 / psy-rdoq=0.00 / log2-max-poc-lsb=8 / no-rd-refine / signhide / deblock=0:0 / sao / no-sao-non-deblock / b-pyramid / cutree / no-intra-refresh / rc=abr / bitrate=4000 / qcomp=0.60 / qpmin=0 / qpmax=69 / qpstep=4 / ipratio=1.40 / pbratio=1.30
Default : Yes
Forced : No
Color range : Limited
Color primaries : BT.709
Transfer characteristics : BT.709
Matrix coefficients : BT.709

Audio
ID : 2
Format : DTS
Format/Info : Digital Theater Systems
Mode : 16
Format settings, Endianness : Big
Codec ID : A_DTS
Duration : 1 h 53 min
Bit rate mode : Constant
Bit rate : 1 509 kb/s
Channel(s) : 6 channels
Channel positions : Front: L C R, Side: L R, LFE
Sampling rate : 48.0 kHz
Frame rate : 93.750 FPS (512 spf)
Bit depth : 24 bits
Compression mode : Lossy
Stream size : 1.19 GiB (27%)
Title : Surround
Language : English
Default : Yes
Forced : No

Menu
00:00:00.000 : :00:00:00.000
00:08:16.746 : :00:08:16.663
00:14:26.199 : :00:14:26.115
00:20:54.378 : :00:20:54.295
00:29:04.993 : :00:29:04.993
00:37:09.936 : :00:37:09.811
00:46:36.085 : :00:46:36.043
00:53:51.937 : :00:53:51.854
01:02:53.520 : :01:02:53.520
01:06:58.431 : :01:06:58.348
01:12:50.992 : :01:12:50.908
01:21:41.772 : :01:21:41.730
01:26:11.667 : :01:26:11.583
01:31:28.942 : :01:31:28.858
01:39:06.441 : :01:39:06.357
01:46:44.940 : :01:46:44.940


BDRip Screenshots

In Dubious Battle (2016)

In Dubious Battle (2016)

In Dubious Battle (2016)


BRRip Screenshots

In Dubious Battle (2016)

In Dubious Battle (2016)

In Dubious Battle (2016)


BDRip 720p Screenshots

In Dubious Battle (2016)

In Dubious Battle (2016)

In Dubious Battle (2016)


BDRip 1080p Screenshots

In Dubious Battle (2016)

In Dubious Battle (2016)

In Dubious Battle (2016)


BRRip 720p Screenshots

In Dubious Battle (2016)

In Dubious Battle (2016)

In Dubious Battle (2016)


BRRip 1080p Screenshots

In Dubious Battle (2016)

In Dubious Battle (2016)

In Dubious Battle (2016)


Come Visit My Blog (•‿•)