Independence Day: Resurgence / День независимости: Возрождение (2016)

Posted By: RSU75
Independence Day: Resurgence / День независимости: Возрождение (2016)

Independence Day: Resurgence / День независимости: Возрождение (2016)
BDRip | MKV | AVC 1280x536, ~ 5.0 Mbps | 1hr 59mn | 6.52 GB
Russian: DTS, 6 ch, 755 kbps; French \ Spanish \ Portuguese \ Turkish: AC3, 6 ch, 448 kbps
Subtitles(PGS): English, French, Spanish, Danish, Finnish, Norwegian, Portuguese, Russian, Turkish, Swedish, Arabic, Estonian, Hebrew, Icelandic, Korean, Latvian, Lithuanian, Ukrainian
Genre: Action, Adventure, Sci-Fi
IMDB Rating: 5.4/10 (78.768 votes)


Director: Roland Emmerich
Writers: Nicolas Wright, James A. Woods
Stars: Liam Hemsworth, Jeff Goldblum, Bill Pullman

Two decades after the freak alien invasion that nearly destroyed mankind a new threat emerges. This Alien mothership is more than twice the size as the last one and once again, the world's armies must band together to save the world. Do they have enough firepower or will this battle change and will aliens take over?




General
Unique ID : 202298348603823101928725705574679860262 (0x98313EA678205308B8DFD9C9BCF05426)
Complete name : l:\Ind4epndncDay.RSR.16.7p2\Ind4epndncDay.RSR.16.7p2.mkv
Format : Matroska
Format version : Version 4 / Version 2
File size : 6.52 GiB
Duration : 1 h 59 min
Overall bit rate : 7 796 kb/s
Movie name : Release RSU75
Encoded date : UTC 2016-10-10 08:20:22
Writing application : mkvmerge v6.6.0 ('The Edge Of The In Between') built on Dec 1 2013 17:55:00
Writing library : libebml v1.3.0 + libmatroska v1.4.1

Video
ID : 1
Format : AVC
Format/Info : Advanced Video Codec
Format profile : High@L4.1
Format settings, CABAC : Yes
Format settings, ReFrames : 5 frames
Codec ID : V_MPEG4/ISO/AVC
Duration : 1 h 59 min
Bit rate : 5 024 kb/s
Width : 1 280 pixels
Height : 536 pixels
Display aspect ratio : 2.40:1
Frame rate mode : Constant
Frame rate : 23.976 FPS
Color space : YUV
Chroma subsampling : 4:2:0
Bit depth : 8 bits
Scan type : Progressive
Bits/(Pixel*Frame) : 0.305
Stream size : 4.25 GiB (65%)
Writing library : x264 core 148 r2705 3f5ed56
Encoding settings : cabac=1 / ref=5 / deblock=1:0:0 / analyse=0x3:0x133 / me=umh / subme=7 / psy=1 / psy_rd=1.00:0.00 / mixed_ref=1 / me_range=16 / chroma_me=1 / trellis=1 / 8x8dct=1 / cqm=0 / deadzone=21,11 / fast_pskip=0 / chroma_qp_offset=-2 / threads=12 / lookahead_threads=2 / sliced_threads=0 / nr=0 / decimate=1 / interlaced=0 / bluray_compat=0 / constrained_intra=0 / bframes=3 / b_pyramid=2 / b_adapt=1 / b_bias=0 / direct=1 / weightb=1 / open_gop=0 / weightp=2 / keyint=250 / keyint_min=23 / scenecut=40 / intra_refresh=0 / rc_lookahead=40 / rc=2pass / mbtree=1 / bitrate=5024 / ratetol=1.0 / qcomp=0.60 / qpmin=0 / qpmax=69 / qpstep=4 / cplxblur=20.0 / qblur=0.5 / ip_ratio=1.40 / aq=1:1.00
Language : English
Default : Yes
Forced : No

Audio #1
ID : 2
Format : DTS
Format/Info : Digital Theater Systems
Mode : 16
Format settings, Endianness : Big
Codec ID : A_DTS
Duration : 1 h 59 min
Bit rate mode : Constant
Bit rate : 768 kb/s
Channel(s) : 6 channels
Channel positions : Front: L C R, Side: L R, LFE
Sampling rate : 48.0 kHz
Frame rate : 93.750 FPS (512 spf)
Bit depth : 24 bits
Compression mode : Lossy
Stream size : 658 MiB (10%)
Language : Russian
Default : Yes
Forced : No

Audio #2
ID : 3
Format : AC-3
Format/Info : Audio Coding 3
Mode extension : CM (complete main)
Format settings, Endianness : Big
Codec ID : A_AC3
Duration : 1 h 59 min
Bit rate mode : Constant
Bit rate : 448 kb/s
Channel(s) : 6 channels
Channel positions : Front: L C R, Side: L R, LFE
Sampling rate : 48.0 kHz
Frame rate : 31.250 FPS (1536 spf)
Compression mode : Lossy
Stream size : 384 MiB (6%)
Language : Spanish
Default : No
Forced : No

Audio #3
ID : 4
Format : AC-3
Format/Info : Audio Coding 3
Mode extension : CM (complete main)
Format settings, Endianness : Big
Codec ID : A_AC3
Duration : 1 h 59 min
Bit rate mode : Constant
Bit rate : 448 kb/s
Channel(s) : 6 channels
Channel positions : Front: L C R, Side: L R, LFE
Sampling rate : 48.0 kHz
Frame rate : 31.250 FPS (1536 spf)
Compression mode : Lossy
Stream size : 384 MiB (6%)
Language : French
Default : No
Forced : No

Audio #4
ID : 5
Format : AC-3
Format/Info : Audio Coding 3
Mode extension : CM (complete main)
Format settings, Endianness : Big
Codec ID : A_AC3
Duration : 1 h 59 min
Bit rate mode : Constant
Bit rate : 448 kb/s
Channel(s) : 6 channels
Channel positions : Front: L C R, Side: L R, LFE
Sampling rate : 48.0 kHz
Frame rate : 31.250 FPS (1536 spf)
Compression mode : Lossy
Stream size : 384 MiB (6%)
Language : Portuguese
Default : No
Forced : No

Audio #5
ID : 6
Format : AC-3
Format/Info : Audio Coding 3
Mode extension : CM (complete main)
Format settings, Endianness : Big
Codec ID : A_AC3
Duration : 1 h 59 min
Bit rate mode : Constant
Bit rate : 448 kb/s
Channel(s) : 6 channels
Channel positions : Front: L C R, Side: L R, LFE
Sampling rate : 48.0 kHz
Frame rate : 31.250 FPS (1536 spf)
Compression mode : Lossy
Stream size : 384 MiB (6%)
Language : Turkish
Default : No
Forced : No

Text #1
ID : 7
Format : PGS
Muxing mode : zlib
Codec ID : S_HDMV/PGS
Codec ID/Info : Picture based subtitle format used on BDs/HD-DVDs
Title : PGS
Language : English
Default : No
Forced : No

Text #2
ID : 8
Format : PGS
Muxing mode : zlib
Codec ID : S_HDMV/PGS
Codec ID/Info : Picture based subtitle format used on BDs/HD-DVDs
Title : PGS
Language : Spanish
Default : No
Forced : No

Text #3
ID : 9
Format : PGS
Muxing mode : zlib
Codec ID : S_HDMV/PGS
Codec ID/Info : Picture based subtitle format used on BDs/HD-DVDs
Title : PGS
Language : French
Default : No
Forced : No

Text #4
ID : 10
Format : PGS
Muxing mode : zlib
Codec ID : S_HDMV/PGS
Codec ID/Info : Picture based subtitle format used on BDs/HD-DVDs
Title : PGS
Language : Danish
Default : No
Forced : No

Text #5
ID : 11
Format : PGS
Muxing mode : zlib
Codec ID : S_HDMV/PGS
Codec ID/Info : Picture based subtitle format used on BDs/HD-DVDs
Title : PGS
Language : Finnish
Default : No
Forced : No

Text #6
ID : 12
Format : PGS
Muxing mode : zlib
Codec ID : S_HDMV/PGS
Codec ID/Info : Picture based subtitle format used on BDs/HD-DVDs
Title : PGS
Language : Norwegian
Default : No
Forced : No

Text #7
ID : 13
Format : PGS
Muxing mode : zlib
Codec ID : S_HDMV/PGS
Codec ID/Info : Picture based subtitle format used on BDs/HD-DVDs
Title : PGS
Language : Portuguese
Default : No
Forced : No

Text #8
ID : 14
Format : PGS
Muxing mode : zlib
Codec ID : S_HDMV/PGS
Codec ID/Info : Picture based subtitle format used on BDs/HD-DVDs
Title : PGS
Language : Russian
Default : No
Forced : No

Text #9
ID : 15
Format : PGS
Muxing mode : zlib
Codec ID : S_HDMV/PGS
Codec ID/Info : Picture based subtitle format used on BDs/HD-DVDs
Title : PGS
Language : Swedish
Default : No
Forced : No

Text #10
ID : 16
Format : PGS
Muxing mode : zlib
Codec ID : S_HDMV/PGS
Codec ID/Info : Picture based subtitle format used on BDs/HD-DVDs
Title : PGS
Language : Arabic
Default : No
Forced : No

Text #11
ID : 17
Format : PGS
Muxing mode : zlib
Codec ID : S_HDMV/PGS
Codec ID/Info : Picture based subtitle format used on BDs/HD-DVDs
Title : PGS
Language : Estonian
Default : No
Forced : No

Text #12
ID : 18
Format : PGS
Muxing mode : zlib
Codec ID : S_HDMV/PGS
Codec ID/Info : Picture based subtitle format used on BDs/HD-DVDs
Title : PGS
Language : Hebrew
Default : No
Forced : No

Text #13
ID : 19
Format : PGS
Muxing mode : zlib
Codec ID : S_HDMV/PGS
Codec ID/Info : Picture based subtitle format used on BDs/HD-DVDs
Title : PGS
Language : Icelandic
Default : No
Forced : No

Text #14
ID : 20
Format : PGS
Muxing mode : zlib
Codec ID : S_HDMV/PGS
Codec ID/Info : Picture based subtitle format used on BDs/HD-DVDs
Title : PGS
Language : Korean
Default : No
Forced : No

Text #15
ID : 21
Format : PGS
Muxing mode : zlib
Codec ID : S_HDMV/PGS
Codec ID/Info : Picture based subtitle format used on BDs/HD-DVDs
Title : PGS
Language : Latvian
Default : No
Forced : No

Text #16
ID : 22
Format : PGS
Muxing mode : zlib
Codec ID : S_HDMV/PGS
Codec ID/Info : Picture based subtitle format used on BDs/HD-DVDs
Title : PGS
Language : Lithuanian
Default : No
Forced : No

Text #17
ID : 23
Format : PGS
Muxing mode : zlib
Codec ID : S_HDMV/PGS
Codec ID/Info : Picture based subtitle format used on BDs/HD-DVDs
Title : PGS
Language : Portuguese
Default : No
Forced : No

Text #18
ID : 24
Format : PGS
Muxing mode : zlib
Codec ID : S_HDMV/PGS
Codec ID/Info : Picture based subtitle format used on BDs/HD-DVDs
Title : PGS
Language : Turkish
Default : No
Forced : No

Text #19
ID : 25
Format : PGS
Muxing mode : zlib
Codec ID : S_HDMV/PGS
Codec ID/Info : Picture based subtitle format used on BDs/HD-DVDs
Title : PGS
Language : Ukrainian
Default : No
Forced : No

Menu
00:00:00.000 : en:00:00:00.000
00:05:37.337 : en:00:05:37.337
00:09:15.472 : en:00:09:15.472
00:14:06.721 : en:00:14:06.721
00:19:40.471 : en:00:19:40.471
00:22:59.003 : en:00:22:59.003
00:27:10.254 : en:00:27:10.254
00:31:37.646 : en:00:31:37.646
00:39:11.975 : en:00:39:11.975
00:43:41.118 : en:00:43:41.118
00:47:46.614 : en:00:47:46.614
00:52:32.191 : en:00:52:32.191
00:59:10.255 : en:00:59:10.255
01:02:00.133 : en:01:02:00.133
01:07:12.070 : en:01:07:12.070
01:09:54.816 : en:01:09:54.816
01:13:11.721 : en:01:13:11.721
01:18:27.453 : en:01:18:27.453
01:22:45.502 : en:01:22:45.502
01:27:51.808 : en:01:27:51.808
01:32:36.718 : en:01:32:36.718
01:39:38.139 : en:01:39:38.139
01:47:20.142 : en:01:47:20.142
01:50:36.713 : en:01:50:36.713




Screenshots (click to enlarge to original size):

Independence Day: Resurgence / День независимости: Возрождение (2016)

Independence Day: Resurgence / День независимости: Возрождение (2016)

Independence Day: Resurgence / День независимости: Возрождение (2016)

Independence Day: Resurgence / День независимости: Возрождение (2016)

Independence Day: Resurgence / День независимости: Возрождение (2016)



–––––––––––––––––––––––––––––––––––––––-
>>> Other BDRip <<< OR >>> "Independence Day" <<<
–––––––––––––––––––––––––––––––––––––––-
>>> Visit Blog RSU75 Here <<<
–––––––––––––––––––––––––––––––––––––––-




5% Recovery. Parts of archives are compatible. No password