Independence Day: Resurgence (2016) [3D]

Posted By: JohnSmith
Independence Day: Resurgence (2016) [3D]

Independence Day: Resurgence (2016)
3D HSBS | BDRip 1080p | MKV / AVC@8950 kb/s | 1920x800 | 1h 59mn | 8.75 GB
English: DTS, 1509 kb/s (6 ch) | Subtitles: English (forced)
Genre: Action | Adventure | Sci-Fi

Two decades after the first Independence Day invasion, Earth is faced with a new extra-Solar threat. But will mankind's new space defenses be enough?

IMDB - 1 win & 2 nominations.



General
Unique ID : 176999342538502547653884830218417793735 (0x8528D5594151B4AEA2D8B262B746EAC7)
Complete name : A:\Independence.Day.Resurgence.2016.3D.1080p.BluRay.x264-SPRiNTER.mkv
Format : Matroska
Format version : Version 4 / Version 2
File size : 8.75 GiB
Duration : 1h 59mn
Overall bit rate : 10.5 Mbps
Encoded date : UTC 2016-10-09 01:39:42
Writing application : mkvmerge v8.3.0 ('Over the Horizon') 64bit
Writing library : libebml v1.3.1 + libmatroska v1.4.2
DURATION : 00:00:07.758000000
NUMBER_OF_FRAMES : 3
NUMBER_OF_BYTES : 107
_STATISTICS_WRITING_APP : mkvmerge v8.3.0 ('Over the Horizon') 64bit
_STATISTICS_WRITING_DATE_UT : 2016-10-09 01:39:42
_STATISTICS_TAGS : BPS DURATION NUMBER_OF_FRAMES NUMBER_OF_BYTES

Video
ID : 1
Format : AVC
Format/Info : Advanced Video Codec
Format profile : High@L4.1
Format settings, CABAC : Yes
Format settings, ReFrames : 5 frames
Codec ID : V_MPEG4/ISO/AVC
Duration : 1h 59mn
Bit rate : 8 952 Kbps
Width : 1 920 pixels
Height : 800 pixels
Display aspect ratio : 2.40:1
Frame rate mode : Constant
Frame rate : 23.976 fps
Color space : YUV
Chroma subsampling : 4:2:0
Bit depth : 8 bits
Scan type : Progressive
Bits/(Pixel*Frame) : 0.243
Stream size : 7.31 GiB (84%)
Writing library : x264 core 148 r2692 64f4e24
Encoding settings : cabac=1 / ref=5 / deblock=1:0:0 / analyse=0x3:0x133 / me=umh / subme=7 / psy=1 / psy_rd=1.00:0.00 / mixed_ref=1 / me_range=16 / chroma_me=1 / trellis=1 / 8x8dct=1 / cqm=0 / deadzone=21,11 / fast_pskip=0 / chroma_qp_offset=-2 / threads=24 / lookahead_threads=4 / sliced_threads=0 / nr=0 / decimate=1 / interlaced=0 / bluray_compat=0 / constrained_intra=0 / bframes=3 / b_pyramid=2 / b_adapt=1 / b_bias=0 / direct=1 / weightb=1 / open_gop=0 / weightp=2 / keyint=250 / keyint_min=23 / scenecut=40 / intra_refresh=0 / rc_lookahead=40 / rc=2pass / mbtree=1 / bitrate=8952 / ratetol=1.0 / qcomp=0.60 / qpmin=0 / qpmax=69 / qpstep=4 / cplxblur=20.0 / qblur=0.5 / ip_ratio=1.40 / aq=1:1.00
Language : English
Default : Yes
Forced : No
DURATION : 01:59:40.585000000
NUMBER_OF_FRAMES : 172162
NUMBER_OF_BYTES : 8034958849
_STATISTICS_WRITING_APP : mkvmerge v8.3.0 ('Over the Horizon') 64bit
_STATISTICS_WRITING_DATE_UT : 2016-10-09 01:39:42
_STATISTICS_TAGS : BPS DURATION NUMBER_OF_FRAMES NUMBER_OF_BYTES

Audio
ID : 2
Format : DTS
Format/Info : Digital Theater Systems
Format profile : ES
Mode : 16
Format settings, Endianness : Big
Codec ID : A_DTS
Duration : 1h 59mn
Bit rate mode : Constant
Bit rate : 1 509 Kbps
Channel(s) : 6 channels
Channel positions : Front: L C R, Side: L R, LFE
Sampling rate : 48.0 KHz
Bit depth : 24 bits
Compression mode : Lossy
Stream size : 1.26 GiB (14%)
Language : English
Default : Yes
Forced : No

Text
ID : 3
Format : UTF-8
Codec ID : S_TEXT/UTF8
Codec ID/Info : UTF-8 Plain Text
Title : English-Forced
Language : English
Default : Yes
Forced : Yes

Menu
00:00:00.000 : en:00:00:00.000
00:05:37.337 : en:00:05:37.337
00:09:15.472 : en:00:09:15.472
00:14:06.721 : en:00:14:06.721
00:19:40.471 : en:00:19:40.471
00:22:59.003 : en:00:22:59.003
00:27:10.254 : en:00:27:10.254
00:31:37.646 : en:00:31:37.646
00:39:11.975 : en:00:39:11.975
00:43:41.118 : en:00:43:41.118
00:47:46.614 : en:00:47:46.614
00:52:32.191 : en:00:52:32.191
00:59:10.255 : en:00:59:10.255
01:02:00.133 : en:01:02:00.133
01:07:12.070 : en:01:07:12.070
01:09:54.816 : en:01:09:54.816
01:13:11.721 : en:01:13:11.721
01:18:27.453 : en:01:18:27.453
01:22:45.502 : en:01:22:45.502
01:27:51.808 : en:01:27:51.808
01:32:36.718 : en:01:32:36.718
01:39:38.139 : en:01:39:38.139
01:47:20.142 : en:01:47:20.142
01:50:36.713 : en:01:50:36.713




Screenshots

Independence Day: Resurgence (2016) [3D]

Independence Day: Resurgence (2016) [3D]

Independence Day: Resurgence (2016) [3D]