Tags
Language
Tags

National Geographic - Indestructible Megastructures Series 1 (2013)

Posted By: Tutorial
National Geographic - Indestructible Megastructures Series 1 (2013)

National Geographic - Indestructible Megastructures Series 1 (2013)
HDTV | 1280 x 720 | .MP4/AVC @ 3379 Kbps | 3x~42mn | English AAC 160 Kbps, 2 channels | 2.81 GB
Genre: Documentary, Technology

Documentary about extraordinary feats of engineering, Get an inside look at the planning and engineering behind creating some of the greatest buildings ever made.
Part 1: Earthquake Proof Bridge
Documentary about extraordinary feats of engineering, focusing on San Francisco's Bay Bridge, said to be one of the most earthquake-proof bridges in the world

Part 2: Tornado Proof Tower
Extraordinary feats of engineering, continuing with the 98-storey Trump International Hotel and Tower in Chicago, which has enough reinforcement to make it tornado-proof

Part 3: Hurricane Proof Stadium
A look at the Marlins Park stadium in Miami, which has been built to withstand hurricanes and sports a retractable roof as heavy as the Eiffel Tower

also You can look my other last: Technology-posts

General
Complete name : Indestructible.Megastructures.Series.1.1of3.Earthquake.Bridge.mp4
Format : MPEG-4
Format profile : Base Media / Version 2
Codec ID : mp42
File size : 1.04 GiB
Duration : 41mn 46s
Overall bit rate mode : Variable
Overall bit rate : 3 549 Kbps
Encoded date : UTC 2016-12-12 15:04:02
Tagged date : UTC 2016-12-12 15:04:02
Writing application : HandBrake 0.10.5 2016021100

Video
ID : 1
Format : AVC
Format/Info : Advanced Video Codec
Format profile : High@L4.1
Format settings, CABAC : Yes
Format settings, ReFrames : 4 frames
Codec ID : avc1
Codec ID/Info : Advanced Video Coding
Duration : 41mn 46s
Bit rate : 3 379 Kbps
Width : 1 280 pixels
Height : 720 pixels
Display aspect ratio : 16:9
Frame rate mode : Constant
Frame rate : 50.000 fps
Color space : YUV
Chroma subsampling : 4:2:0
Bit depth : 8 bits
Scan type : Progressive
Bits/(Pixel*Frame) : 0.073
Stream size : 1 010 MiB (95%)
Writing library : x264 core 142 r2479 dd79a61
Encoding settings : cabac=1 / ref=1 / deblock=1:0:0 / analyse=0x3:0x3 / me=dia / subme=1 / psy=1 / psy_rd=1.00:0.00 / mixed_ref=0 / me_range=16 / chroma_me=1 / trellis=0 / 8x8dct=1 / cqm=0 / deadzone=21,11 / fast_pskip=1 / chroma_qp_offset=0 / threads=6 / lookahead_threads=1 / sliced_threads=0 / nr=0 / decimate=1 / interlaced=0 / bluray_compat=0 / constrained_intra=0 / bframes=3 / b_pyramid=2 / b_adapt=1 / b_bias=0 / direct=1 / weightb=1 / open_gop=0 / weightp=1 / keyint=500 / keyint_min=50 / scenecut=40 / intra_refresh=0 / rc_lookahead=0 / rc=crf / mbtree=0 / crf=22.0 / qcomp=0.60 / qpmin=0 / qpmax=69 / qpstep=4 / vbv_maxrate=62500 / vbv_bufsize=78125 / crf_max=0.0 / nal_hrd=none / filler=0 / ip_ratio=1.40 / pb_ratio=1.30 / aq=1:1.00
Encoded date : UTC 2016-12-12 15:04:02
Tagged date : UTC 2016-12-12 15:04:02
Color primaries : BT.709-5, BT.1361, IEC 61966-2-4, SMPTE RP177
Transfer characteristics : BT.709-5, BT.1361
Matrix coefficients : BT.709-5, BT.1361, IEC 61966-2-4 709, SMPTE RP177

Audio
ID : 2
Format : AAC
Format/Info : Advanced Audio Codec
Format profile : LC
Codec ID : 40
Duration : 41mn 46s
Bit rate mode : Variable
Bit rate : 160 Kbps
Channel(s) : 2 channels
Channel positions : Front: L R
Sampling rate : 48.0 KHz
Compression mode : Lossy
Stream size : 47.9 MiB (5%)
Title : Stereo
Language : English
Encoded date : UTC 2016-12-12 15:04:02
Tagged date : UTC 2016-12-12 15:04:02
Screenshots

National Geographic - Indestructible Megastructures Series 1 (2013)

National Geographic - Indestructible Megastructures Series 1 (2013)

National Geographic - Indestructible Megastructures Series 1 (2013)

Welcome to my blog - daily update!

National Geographic - Indestructible Megastructures Series 1 (2013)