Tags
Language
Tags

Indiana Jones and the Temple of Doom (1984)

Posted By: Without
1080p (FullHD) / BDRip IMDb
Indiana Jones and the Temple of Doom (1984)

Indiana Jones and the Temple of Doom (1984)
BDRip 1080p | MKV | 1 h 58 min | 26.1 GB | 1920x816 | AVC@26.4 Mb/s
English TrueHD@4320 kb/s, 8 ch | English AC3@640 kb/s, 6 ch
Subs: English, 中文, Dansk, Español, Français, Italiano, 日本語
Norsk, 한국어, Nederlands, Русский, Suomi, Svenska, ภาษาไทย
Genre: Action, Adventure

In 1935, Indiana Jones arrives in India, still part of the British Empire, and is asked to find a mystical stone. He then stumbles upon a secret cult committing enslavement and human sacrifices in the catacombs of an ancient palace.



General
Indiana.Jones.And.The.Temple.Of.Doom.1984.1080p.BluRay.x264.TrueHD.7.1.Atmos-FGT.mkv
Format : Matroska
Format version : Version 4 / Version 2
File size : 26.1 GB
Duration : 1 h 58 min
Overall bit rate mode : Variable
Overall bit rate : 31.6 Mb/s
Movie name : Indiana.Jones.And.The.Temple.Of.Doom.1984.1080p.BluRay.x264.TrueHD.7.1.Atmos-FGT
Encoded date : UTC 2021-07-08 14:09:22
Writing application : mkvmerge v58.0.0 ('Supper's Ready') 64-bit
Writing library : libebml v1.4.2 + libmatroska v1.6.4
Original source medium : Blu-ray

Video
ID : 1
Format : AVC
Format/Info : Advanced Video Codec
Format profile : High@L4.1
Format settings, CABAC : Yes
Format settings, ReFrames : 5 frames
Codec ID : V_MPEG4/ISO/AVC
Duration : 1 h 58 min
Bit rate : 26.4 Mb/s
Width : 1920 pixels
Height : 816 pixels
Display aspect ratio : 2.35:1
Frame rate mode : Constant
Frame rate : 23.976 (24000/1001) FPS
Color space : YUV
Chroma subsampling : 4:2:0
Bit depth : 8 bits
Scan type : Progressive
Bits/(Pixel*Frame) : 0.704
Stream size : 21.9 GB (84%)
Writing library : x264 core 150 r2833kMod df79067
Encoding settings : cabac=1 / ref=5 / deblock=1:0:0 / analyse=0x3:0x133 / me=umh / subme=9 / psy=1 / fade_compensate=0.00 / psy_rd=1.00:0.00 / mixed_ref=1 / me_range=16 / chroma_me=1 / trellis=2 / 8x8dct=1 / cqm=0 / deadzone=21,11 / fast_pskip=1 / chroma_qp_offset=-2 / threads=18 / lookahead_threads=1 / sliced_threads=0 / nr=0 / decimate=1 / interlaced=0 / bluray_compat=0 / constrained_intra=0 / bframes=3 / b_pyramid=2 / b_adapt=2 / b_bias=0 / direct=3 / weightb=1 / open_gop=0 / weightp=2 / keyint=250 / keyint_min=23 / scenecut=40 / intra_refresh=0 / rc_lookahead=60 / rc=crf / mbtree=1 / crf=17.0000 / qcomp=0.60 / qpmin=0 / qpmax=69 / qpstep=4 / ip_ratio=1.40 / aq=1:1.00
Language : English
Default : Yes
Forced : No

Audio #1
ID : 2
ID in the original source medium : 4352 (0x1100)
Format : Atmos / TrueHD
Codec ID : A_TRUEHD
Duration : 1 h 58 min
Bit rate mode : Variable
Bit rate : 4320 kb/s
Maximum bit rate : 6240 kb/s
Channel(s) : Object Based / 8 channels
Channel positions : Object Based / Front: L C R, Side: L R, Back: L R, LFE
Sampling rate : / 48.0 kHz
Frame rate : 1200.000 FPS (40 spf)
Bit depth : 24 bits
Compression mode : Lossless
Stream size : 3.57 GB (14%)
Title : TrueHD 7.1 Atmos
Language : English
Default : Yes
Forced : No

Audio #2
ID : 3
ID in the original source medium : 4352 (0x1100)
Format : AC-3
Format/Info : Audio Coding 3
Mode extension : CM (complete main)
Format settings, Endianness : Big
Codec ID : A_AC3
Duration : 1 h 58 min
Bit rate mode : Constant
Bit rate : 640 kb/s
Channel(s) : 6 channels
Channel positions : Front: L C R, Side: L R, LFE
Sampling rate : 48.0 kHz
Frame rate : 31.250 FPS (1536 spf)
Bit depth : 16 bits
Compression mode : Lossy
Stream size : 542 MB (2%)
Title : DD 5.1
Language : English
Default : No
Forced : No

Text #1
ID : 4
Format : UTF-8
Codec ID : S_TEXT/UTF8
Codec ID/Info : UTF-8 Plain Text
Duration : 1 h 52 min
Bit rate : 27 b/s
Count of elements : 863
Stream size : 22.5 KiB (0%)
Title : SRT
Language : English
Default : Yes
Forced : No

Text #2
ID : 5
ID in the original source medium : 4768 (0x12A0)
Format : PGS
Muxing mode : zlib
Codec ID : S_HDMV/PGS
Codec ID/Info : Picture based subtitle format used on BDs/HD-DVDs
Duration : 1 h 52 min
Bit rate : 17.7 kb/s
Count of elements : 1734
Stream size : 14.2 MB (0%)
Language : English
Default : No
Forced : No

Text #3
ID : 6
ID in the original source medium : 4769 (0x12A1)
Format : PGS
Muxing mode : zlib
Codec ID : S_HDMV/PGS
Codec ID/Info : Picture based subtitle format used on BDs/HD-DVDs
Duration : 1 h 52 min
Bit rate : 22.3 kb/s
Count of elements : 2234
Stream size : 17.9 MB (0%)
Language : English
Default : No
Forced : No

Text #4
ID : 7
ID in the original source medium : 4770 (0x12A2)
Format : PGS
Muxing mode : zlib
Codec ID : S_HDMV/PGS
Codec ID/Info : Picture based subtitle format used on BDs/HD-DVDs
Duration : 1 h 57 min
Bit rate : 10.6 kb/s
Count of elements : 1244
Stream size : 8.93 MB (0%)
Language : Chinese
Default : No
Forced : No

Text #5
ID : 8
ID in the original source medium : 4771 (0x12A3)
Format : PGS
Muxing mode : zlib
Codec ID : S_HDMV/PGS
Codec ID/Info : Picture based subtitle format used on BDs/HD-DVDs
Duration : 1 h 55 min
Bit rate : 14.6 kb/s
Count of elements : 1342
Stream size : 12.0 MB (0%)
Language : Danish
Default : No
Forced : No

Text #6
ID : 9
ID in the original source medium : 4772 (0x12A4)
Format : PGS
Muxing mode : zlib
Codec ID : S_HDMV/PGS
Codec ID/Info : Picture based subtitle format used on BDs/HD-DVDs
Duration : 1 h 57 min
Bit rate : 15.2 kb/s
Count of elements : 1372
Stream size : 12.8 MB (0%)
Language : Spanish
Default : No
Forced : No

Text #7
ID : 10
ID in the original source medium : 4773 (0x12A5)
Format : PGS
Muxing mode : zlib
Codec ID : S_HDMV/PGS
Codec ID/Info : Picture based subtitle format used on BDs/HD-DVDs
Duration : 1 h 57 min
Bit rate : 13.5 kb/s
Count of elements : 1262
Stream size : 11.3 MB (0%)
Language : French
Default : No
Forced : No

Text #8
ID : 11
ID in the original source medium : 4774 (0x12A6)
Format : PGS
Muxing mode : zlib
Codec ID : S_HDMV/PGS
Codec ID/Info : Picture based subtitle format used on BDs/HD-DVDs
Duration : 1 h 57 min
Bit rate : 15.0 kb/s
Count of elements : 1368
Stream size : 12.7 MB (0%)
Language : Italian
Default : No
Forced : No

Text #9
ID : 12
ID in the original source medium : 4775 (0x12A7)
Format : PGS
Muxing mode : zlib
Codec ID : S_HDMV/PGS
Codec ID/Info : Picture based subtitle format used on BDs/HD-DVDs
Duration : 1 h 52 min
Bit rate : 12.0 kb/s
Count of elements : 1410
Stream size : 9.63 MB (0%)
Language : Japanese
Default : No
Forced : No

Text #10
ID : 13
ID in the original source medium : 4776 (0x12A8)
Format : PGS
Muxing mode : zlib
Codec ID : S_HDMV/PGS
Codec ID/Info : Picture based subtitle format used on BDs/HD-DVDs
Duration : 1 h 57 min
Bit rate : 11.5 kb/s
Count of elements : 1504
Stream size : 9.70 MB (0%)
Language : Korean
Default : No
Forced : No

Text #11
ID : 14
ID in the original source medium : 4777 (0x12A9)
Format : PGS
Muxing mode : zlib
Codec ID : S_HDMV/PGS
Codec ID/Info : Picture based subtitle format used on BDs/HD-DVDs
Duration : 1 h 57 min
Bit rate : 11.3 kb/s
Count of elements : 1510
Stream size : 9.49 MB (0%)
Language : Chinese
Default : No
Forced : No

Text #12
ID : 15
ID in the original source medium : 4778 (0x12AA)
Format : PGS
Muxing mode : zlib
Codec ID : S_HDMV/PGS
Codec ID/Info : Picture based subtitle format used on BDs/HD-DVDs
Duration : 1 h 55 min
Bit rate : 12.9 kb/s
Count of elements : 1116
Stream size : 10.7 MB (0%)
Language : Dutch
Default : No
Forced : No

Text #13
ID : 16
ID in the original source medium : 4779 (0x12AB)
Format : PGS
Muxing mode : zlib
Codec ID : S_HDMV/PGS
Codec ID/Info : Picture based subtitle format used on BDs/HD-DVDs
Duration : 1 h 55 min
Bit rate : 13.0 kb/s
Count of elements : 1278
Stream size : 10.7 MB (0%)
Language : Norwegian
Default : No
Forced : No

Text #14
ID : 17
ID in the original source medium : 4780 (0x12AC)
Format : PGS
Muxing mode : zlib
Codec ID : S_HDMV/PGS
Codec ID/Info : Picture based subtitle format used on BDs/HD-DVDs
Duration : 1 h 57 min
Bit rate : 14.9 kb/s
Count of elements : 1272
Stream size : 12.6 MB (0%)
Language : Russian
Default : No
Forced : No

Text #15
ID : 18
ID in the original source medium : 4781 (0x12AD)
Format : PGS
Muxing mode : zlib
Codec ID : S_HDMV/PGS
Codec ID/Info : Picture based subtitle format used on BDs/HD-DVDs
Duration : 1 h 57 min
Bit rate : 12.5 kb/s
Count of elements : 1606
Stream size : 10.6 MB (0%)
Language : Chinese
Default : No
Forced : No

Text #16
ID : 19
ID in the original source medium : 4782 (0x12AE)
Format : PGS
Muxing mode : zlib
Codec ID : S_HDMV/PGS
Codec ID/Info : Picture based subtitle format used on BDs/HD-DVDs
Duration : 1 h 55 min
Bit rate : 15.3 kb/s
Count of elements : 1314
Stream size : 12.6 MB (0%)
Language : Finnish
Default : No
Forced : No

Text #17
ID : 20
ID in the original source medium : 4783 (0x12AF)
Format : PGS
Muxing mode : zlib
Codec ID : S_HDMV/PGS
Codec ID/Info : Picture based subtitle format used on BDs/HD-DVDs
Duration : 1 h 55 min
Bit rate : 14.0 kb/s
Count of elements : 1336
Stream size : 11.5 MB (0%)
Language : Swedish
Default : No
Forced : No

Text #18
ID : 21
ID in the original source medium : 4784 (0x12B0)
Format : PGS
Muxing mode : zlib
Codec ID : S_HDMV/PGS
Codec ID/Info : Picture based subtitle format used on BDs/HD-DVDs
Duration : 1 h 57 min
Bit rate : 12.4 kb/s
Count of elements : 1482
Stream size : 10.4 MB (0%)
Language : Thai
Default : No
Forced : No

Text #19
ID : 22
ID in the original source medium : 4785 (0x12B1)
Format : PGS
Muxing mode : zlib
Codec ID : S_HDMV/PGS
Codec ID/Info : Picture based subtitle format used on BDs/HD-DVDs
Duration : 10 min 32 s
Bit rate : 603 b/s
Count of elements : 6
Stream size : 46.6 KiB (0%)
Language : Japanese
Default : No
Forced : No

Menu
00:00:00.000 : Chapter 01
00:02:54.841 : Chapter 02
00:08:07.278 : Chapter 03
00:10:52.693 : Chapter 04
00:12:51.312 : Chapter 05
00:16:00.542 : Chapter 06
00:19:49.980 : Chapter 07
00:26:28.503 : Chapter 08
00:28:42.762 : Chapter 09
00:31:49.032 : Chapter 10
00:35:20.660 : Chapter 11
00:38:56.751 : Chapter 12
00:41:20.144 : Chapter 13
00:46:24.031 : Chapter 14
00:50:42.831 : Chapter 15
00:52:06.456 : Chapter 16
00:56:08.365 : Chapter 17
00:59:56.843 : Chapter 18
01:05:57.036 : Chapter 19
01:09:52.021 : Chapter 20
01:13:08.550 : Chapter 21
01:17:08.290 : Chapter 22
01:24:01.578 : Chapter 23
01:27:33.206 : Chapter 24
01:29:20.855 : Chapter 25
01:35:03.447 : Chapter 26
01:39:23.791 : Chapter 27
01:41:51.271 : Chapter 28
01:43:38.795 : Chapter 29
01:49:57.507 : Chapter 30
01:53:10.867 : Chapter 31



BDRip 1080p Screenshots

Indiana Jones and the Temple of Doom (1984)

Indiana Jones and the Temple of Doom (1984)

Indiana Jones and the Temple of Doom (1984)


Come Visit My Blog (•‿•)