Tags
Language
Tags
February 2023
Su Mo Tu We Th Fr Sa
29 30 31 1 2 3 4
5 6 7 8 9 10 11
12 13 14 15 16 17 18
19 20 21 22 23 24 25
26 27 28 1 2 3 4

Ingrid Goes West (2017)

Posted By: Tavaz
1080p (FullHD) / BDRip IMDb
Ingrid Goes West (2017)

Ingrid Goes West (2017)
BDRip | MKV | 1920x1080 | English | H264 @ 5760 kbps | AC-3 @ 448 kbps | 1 h 37 min | 4.37 GiB
Subtitles: English
Genre: Drama, Comedy

Ingrid becomes obsessed with a social network star named Taylor Sloane who seemingly has a perfect life. But when Ingrid decides to drop everything and move west to be Taylor's friend, her behaviour turns unsettling and dangerous.

8d8d3c99b600c67fda6a27101f629172.mkv (4.4 GB)



General
Unique ID : 49074283331034827387590628731405872173 (0x24EB5CF9253E3952B618B0B806A22C2D)
Complete name : ./8d8d3c99b600c67fda6a27101f629172.mkv
Format : Matroska
Format version : Version 4 / Version 2
File size : 4.37 GiB
Duration : 1 h 37 min
Overall bit rate : 6 392 kb/s
Movie name : Ingrid.Goes.West.2017.1080p.BluRay.x264-nikt0
Encoded date : UTC 2020-11-29 20:46:17 / UTC 2020-11-28T19:33:59Z
Writing application : mkvmerge v47.0.0 ('Black Flag') 64-bit
Writing library : libebml v1.3.10 + libmatroska v1.5.2 / Lavf57.7.2

Video
ID : 1
Format : AVC
Format/Info : Advanced Video Codec
Format profile : High@L4
Format settings : CABAC / 4 Ref Frames
Format settings, CABAC : Yes
Format settings, RefFrames : 4 frames
Codec ID : V_MPEG4/ISO/AVC
Duration : 1 h 37 min
Bit rate : 5 760 kb/s
Width : 1 920 pixels
Height : 1 080 pixels
Display aspect ratio : 16:9
Frame rate mode : Constant
Frame rate : 23.976 (24000/1001) FPS
Color space : YUV
Chroma subsampling : 4:2:0
Bit depth : 8 bits
Scan type : Progressive
Bits/(Pixel*Frame) : 0.116
Stream size : 3.85 GiB (88%)
Writing library : x264 core 155 r2901 7d0ff22
Encoding settings : cabac=1 / ref=4 / deblock=1:-3:-3 / analyse=0x3:0x133 / me=umh / subme=9 / psy=1 / psy_rd=1.10:0.25 / mixed_ref=1 / me_range=32 / chroma_me=1 / trellis=2 / 8x8dct=1 / cqm=0 / deadzone=6,6 / fast_pskip=1 / chroma_qp_offset=-4 / threads=34 / lookahead_threads=3 / sliced_threads=0 / nr=0 / decimate=1 / interlaced=0 / bluray_compat=0 / constrained_intra=0 / bframes=6 / b_pyramid=2 / b_adapt=2 / b_bias=0 / direct=3 / weightb=1 / open_gop=0 / weightp=2 / keyint=240 / keyint_min=24 / scenecut=40 / intra_refresh=0 / rc_lookahead=40 / rc=2pass / mbtree=1 / bitrate=5760 / ratetol=1.0 / qcomp=0.60 / qpmin=0 / qpmax=69 / qpstep=4 / cplxblur=20.0 / qblur=0.5 / vbv_maxrate=20000 / vbv_bufsize=25000 / nal_hrd=none / filler=0 / ip_ratio=1.40 / aq=1:1.00
Language : English
Default : Yes
Forced : No
Color range : Limited
Color primaries : BT.709
Transfer characteristics : BT.709
Matrix coefficients : BT.709
Statistics Tags Issue : mkvmerge v47.0.0 ('Black Flag') 64-bit 2020-11-29 20:46:17 / mkvmerge v47.0.0 ('Black Flag') 64-bit 2020-11-29 20:46:17 / UTC 2020-11-28T19:33:59Z
FromStats_BitRate : 5753679
FromStats_Duration : 01:37:52.909000000
FromStats_FrameCount : 140809
FromStats_StreamSize : 4223854852

Audio #1
ID : 2
Format : AC-3
Format/Info : Audio Coding 3
Format settings, Endianness : Big
Codec ID : A_AC3
Duration : 1 h 37 min
Bit rate mode : Constant
Bit rate : 448 kb/s
Channel(s) : 6 channels
Channel positions : Front: L C R, Side: L R, LFE
Sampling rate : 48.0 kHz
Frame rate : 31.250 FPS (1536 SPF)
Bit depth : 16 bits
Compression mode : Lossy
Stream size : 314 MiB (7%)
Title : Surround
Language : English
Service kind : Complete Main
Default : Yes
Forced : No
Statistics Tags Issue : mkvmerge v47.0.0 ('Black Flag') 64-bit 2020-11-29 20:46:17 / mkvmerge v47.0.0 ('Black Flag') 64-bit 2020-11-29 20:46:17 / UTC 2020-11-28T19:33:59Z
FromStats_BitRate : 448000
FromStats_Duration : 01:37:56.448000000
FromStats_FrameCount : 183639
FromStats_StreamSize : 329081088

Audio #2
ID : 3
Format : AC-3
Format/Info : Audio Coding 3
Format settings, Endianness : Big
Codec ID : A_AC3
Duration : 1 h 37 min
Bit rate mode : Constant
Bit rate : 192 kb/s
Channel(s) : 2 channels
Channel positions : Front: L R
Sampling rate : 48.0 kHz
Frame rate : 31.250 FPS (1536 SPF)
Bit depth : 16 bits
Compression mode : Lossy
Stream size : 135 MiB (3%)
Title : Stereo commentary
Language : English
Service kind : Complete Main
Default : No
Forced : No
Statistics Tags Issue : mkvmerge v47.0.0 ('Black Flag') 64-bit 2020-11-29 20:46:17 / mkvmerge v47.0.0 ('Black Flag') 64-bit 2020-11-29 20:46:17 / UTC 2020-11-28T19:33:59Z
FromStats_BitRate : 192000
FromStats_Duration : 01:37:56.448000000
FromStats_FrameCount : 183639
FromStats_StreamSize : 141034752

Text
ID : 4
Format : UTF-8
Codec ID : S_TEXT/UTF8
Codec ID/Info : UTF-8 Plain Text
Language : English
Default : Yes
Forced : No
Statistics Tags Issue : mkvmerge v47.0.0 ('Black Flag') 64-bit 2020-11-29 20:46:17 / mkvmerge v47.0.0 ('Black Flag') 64-bit 2020-11-29 20:46:17 / UTC 2020-11-28T19:33:59Z
FromStats_BitRate : 80
FromStats_Duration : 01:32:04.660000000
FromStats_FrameCount : 1573
FromStats_StreamSize : 55692

Menu
00:00:00.000 : :Chapter 1
00:13:03.366 : :Chapter 2
00:22:56.041 : :Chapter 3
00:32:29.906 : :Chapter 4
00:42:07.108 : :Chapter 5
00:53:04.181 : :Chapter 6
01:03:17.877 : :Chapter 7
01:13:17.351 : :Chapter 8
01:22:27.693 : :Chapter 9
01:32:53.651 : :Chapter 10





Ingrid Goes West (2017)


Ingrid Goes West (2017)


Ingrid Goes West (2017)


Ingrid Goes West (2017)


Ingrid Goes West (2017)