National Geographic - Inside Underground Poker NYC (2013)

Posted By: ParRus
National Geographic - Inside Underground Poker NYC (2013)

National Geographic - Inside Underground Poker NYC (2013)
BDRip | English | MKV | 1280 x 720 | AVC ~2656 Kbps | 25 fps
AC-3 | 192 kbps | 48.0 KHz | 2 channels | 00:44:59 | 935 MB
Genre: Documentary

Across New York City, an underground economy exists that pulsates with danger, allure and adrenaline — generated by clandestine high-stakes poker games. One of the top games in the city is run by Mikey Tatts, who has cultivated an eclectic roster of players and friends, including Wall Street brokers, doctors, business owners, drug dealers, pimps and people who make their living playing cards.
More Info: http://channel.nationalgeographic.com/channel/episodes/underground-poker-nyc/

General
Complete name : National.Geographic.Underground.Poker.mkv
Format : Matroska
Format version : Version 4 / Version 2
File size : 935 MiB
Duration : 44mn 59s
Overall bit rate : 2 906 Kbps
Encoded date : UTC 2013-01-22 17:05:10
Writing application : mkvmerge v5.9.0 ('On The Loose') built on Dec 31 2012 17:36:59
Writing library : libebml v1.3.0 + libmatroska v1.4.0
Video #1
ID : 1
Format : AVC
Format/Info : Advanced Video Codec
Format profile : High@L4.1
Format settings, CABAC : Yes
Format settings, ReFrames : 5 frames
Codec ID : V_MPEG4/ISO/AVC
Duration : 44mn 59s
Bit rate : 2 656 Kbps
Width : 1 280 pixels
Height : 720 pixels
Display aspect ratio : 16:9
Frame rate : 25.000 fps
Color space : YUV
Chroma subsampling : 4:2:0
Bit depth : 8 bits
Scan type : Progressive
Bits/(Pixel*Frame) : 0.115
Stream size : 855 MiB (91%)
Writing library : x264 core 129 r2245 bc13772
Encoding settings : cabac=1 / ref=5 / deblock=1:-1:-1 / analyse=0x3:0x113 / me=umh / subme=8 / psy=1 / psy_rd=1.00:0.00 / mixed_ref=1 / me_range=16 / chroma_me=1 / trellis=1 / 8x8dct=1 / cqm=0 / deadzone=21,11 / fast_pskip=1 / chroma_qp_offset=-2 / threads=12 / lookahead_threads=2 / sliced_threads=0 / nr=0 / decimate=1 / interlaced=0 / bluray_compat=0 / constrained_intra=0 / bframes=3 / b_pyramid=2 / b_adapt=2 / b_bias=0 / direct=3 / weightb=1 / open_gop=0 / weightp=2 / keyint=250 / keyint_min=25 / scenecut=40 / intra_refresh=0 / rc_lookahead=50 / rc=crf / mbtree=1 / crf=18.0 / qcomp=0.60 / qpmin=0 / qpmax=69 / qpstep=4 / ip_ratio=1.40 / aq=1:1.00
Language : English
Audio #2
ID : 2
Format : AC-3
Format/Info : Audio Coding 3
Mode extension : CM (complete main)
Codec ID : A_AC3
Duration : 44mn 59s
Bit rate mode : Constant
Bit rate : 192 Kbps
Channel(s) : 2 channels
Channel positions : Front: L R
Sampling rate : 48.0 KHz
Bit depth : 16 bits
Compression mode : Lossy
Delay relative to video : 128ms
Stream size : 61.8 MiB (7%)

National Geographic - Inside Underground Poker NYC (2013)

National Geographic - Inside Underground Poker NYC (2013)

National Geographic - Inside Underground Poker NYC (2013)

National Geographic - Inside Underground Poker NYC (2013)

For more, Visit my AH-blog

no mirrors please, Follow The Rules