Inside the Koran (2008)

Posted By: Polik88
Inside the Koran (2008)

Inside the Koran (2008)
DVDRip | English | AVI/XVID 29.970 fps 845 Kbps | 624x352 | MP3 128 Kbps 48.0 khz | 1h 38mn | 699 MB
Genre: Documentary

Inside the Koran is a brave and intelligent documentary on how Islam is interpreted and practiced by Muslims in different countries and provides deep insight on the subject such as how is living inside the hijap for a Muslim woman, how is Sharia (Islamic law) practiced together with modern day bureaucracy or what does the Qur'an say about crime and punishment? The vital portion of the program is the analysis of some layers of the oldest Qur'an ever. Even orthodox Muslims believe that the Qur'an is the ultimate and unchanging word of God. However the truth is totally different. These ancient texts do not contain distinguishing dots which mean individual words can have thirty different meanings. Moreover forensic examinations revealed the earlier texts that have been washed off and overwritten. In a nutshell the written Qur'an shows variation, words have been changed, verses and whole chapters rearranged.
General
Complete name : Inside.The.Koran.avi
Format : AVI
Format/Info : Audio Video Interleave
File size : 699 MiB
Duration : 1h 38mn
Overall bit rate mode : Variable
Overall bit rate : 989 Kbps
Writing application : VirtualDubMod 1.5.10.2 (build 2540/release)
Writing library : VirtualDubMod build 2540/release

Video
ID : 0
Format : MPEG-4 Visual
Format profile : Advanced Simple@L5
Format settings, BVOP : 2
Format settings, QPel : No
Format settings, GMC : No warppoints
Format settings, Matrix : Default (H.263)
Codec ID : XVID
Codec ID/Hint : XviD
Duration : 1h 38mn
Bit rate : 845 Kbps
Width : 624 pixels
Height : 352 pixels
Display aspect ratio : 16:9
Frame rate : 29.970 fps
Color space : YUV
Chroma subsampling : 4:2:0
Bit depth : 8 bits
Scan type : Progressive
Compression mode : Lossy
Bits/(Pixel*Frame) : 0.128
Stream size : 597 MiB (85%)
Writing library : XviD 1.1.2 (UTC 2006-11-01)

Audio
ID : 1
Format : MPEG Audio
Format version : Version 1
Format profile : Layer 3
Mode : Joint stereo
Mode extension : MS Stereo
Codec ID : 55
Codec ID/Hint : MP3
Duration : 1h 38mn
Bit rate mode : Variable
Bit rate : 128 Kbps
Channel(s) : 2 channels
Sampling rate : 48.0 KHz
Compression mode : Lossy
Stream size : 92.3 MiB (13%)
Alignment : Aligned on interleaves
Interleave, duration : 24 ms (0.72 video frame)
Interleave, preload duration : 141 ms
Writing library : LAME3.90.
Encoding settings : -m j -V 4 -q 2 -lowpass 17.6 –abr 128

Screenshots

Inside the Koran (2008)

Inside the Koran (2008)

Inside the Koran (2008)

Inside the Koran (2008)

no mirrors please, Follow The Rules
Visit Polik88 Blog Here
no password