Tags
Language
Tags

PBS-BBC EARTH - Islands of Wonder: Series 1 (2020)

Posted By: Tutorial
1080p (FullHD) / HDTV
PBS-BBC EARTH - Islands of Wonder: Series 1 (2020)

PBS-BBC EARTH - Islands of Wonder: Series 1 (2020)
HDTV | 1920 x 1080 | .MP4/AVC @ 4500 Kbps | 3x~55mn | 5.34 GB
Audio: English AAC 161 Kbps, 2 channels | Subs: English
Genre: Documentary

Journey to three of the most exotic, mysterious and remote islands on the planet: Madagascar, Borneo and Hawaii. Isolated from the rest of the world, they harbor remarkable wildlife and pioneering human communities found nowhere else on Earth.

Part 1: Madagascar
The oldest island on Earth, Madagascar has been isolated longer than any other place in the world. Life here has had time to evolve in unusual ways, resulting in more unique wildlife than possibly any other island on the planet.


Part 2: Borneo
Borneo, the third largest island on Earth, may seem like a paradise but its harsh landscape proves a struggle to survive. These challenges allow the island to host a greater diversity of life than almost any other island.


Part 3: Hawaii
The most remote island chain on Earth, offers sanctuary for wildlife that has reached its tropical shores. From humpback whales to waterfall-climbing fish, it’s home to an extraordinary wealth of wildlife.

General
Complete name : Islands.of.Wonder.Series.1.1of3.Madagascar.mp4
Format : MPEG-4
Format profile : Base Media
Codec ID : isom (isom/iso2/avc1/mp41)
File size : 1.78 GiB
Duration : 55 min 11 s
Overall bit rate mode : Variable
Overall bit rate : 4 622 kb/s
Movie name : Islands.of.Wonder.Series.1.1of3.Madagascar.1080p.HDTV.x264.AAC..org
Performer : VideoProc
Genre : Video
Writing application : Lavf58.29.100
Comment : Islands.of.Wonder.Series.1.1of3.Madagascar.1080p.HDTV.x264.AAC..org

Video
ID : 1
Format : AVC
Format/Info : Advanced Video Codec
Format profile : Main@L4.2
Format settings, CABAC : Yes
Format settings, ReFrames : 1 frame
Format settings, GOP : N=1
Codec ID : avc1
Codec ID/Info : Advanced Video Coding
Duration : 55 min 11 s
Bit rate : 4 500 kb/s
Width : 1 920 pixels
Height : 1 080 pixels
Display aspect ratio : 16:9
Frame rate mode : Constant
Frame rate : 29.970 (30000/1001) FPS
Color space : YUV
Chroma subsampling : 4:2:0
Bit depth : 8 bits
Scan type : Progressive
Bits/(Pixel*Frame) : 0.072
Stream size : 1.72 GiB (96%)
Writing library : x264 core 159
Encoding settings : cabac=1 / ref=1 / deblock=1:-1:-1 / analyse=0x1:0x11 / me=hex / subme=2 / psy=1 / psy_rd=1.00:0.15 / mixed_ref=0 / me_range=16 / chroma_me=1 / trellis=0 / 8x8dct=0 / cqm=0 / deadzone=21,11 / fast_pskip=1 / chroma_qp_offset=0 / threads=3 / lookahead_threads=1 / sliced_threads=0 / nr=0 / decimate=1 / interlaced=0 / bluray_compat=0 / constrained_intra=0 / bframes=0 / weightp=1 / keyint=250 / keyint_min=25 / scenecut=40 / intra_refresh=0 / rc_lookahead=10 / rc=cbr / mbtree=1 / bitrate=4500 / ratetol=1.0 / qcomp=0.60 / qpmin=0 / qpmax=69 / qpstep=4 / vbv_maxrate=4500 / vbv_bufsize=1835 / nal_hrd=none / filler=0 / ip_ratio=1.40 / aq=1:1.00

Audio
ID : 2
Format : AAC
Format/Info : Advanced Audio Codec
Format profile : LC
Codec ID : 40
Duration : 55 min 11 s
Bit rate mode : Constant
Bit rate : 161 kb/s
Channel(s) : 2 channels
Channel positions : Front: L R
Sampling rate : 48.0 kHz
Frame rate : 46.875 FPS (1024 spf)
Compression mode : Lossy
Stream size : 63.5 MiB (3%)
Language : English
Default : Yes
Alternate group : 1

Text
ID : 3
Format : Timed Text
Muxing mode : sbtl
Codec ID : tx3g
Duration : 55 min 10 s
Bit rate mode : Variable
Bit rate : 52 b/s
Stream size : 21.1 KiB (0%)
Language : Avestan
Default : Yes
Forced : No
Alternate group : 3
Screenshots

PBS-BBC EARTH - Islands of Wonder: Series 1 (2020)

PBS-BBC EARTH - Islands of Wonder: Series 1 (2020)

PBS-BBC EARTH - Islands of Wonder: Series 1 (2020)

Welcome to my blog - daily update!
PBS-BBC EARTH - Islands of Wonder: Series 1 (2020)