Tags
Language
Tags

It Started with Eve (1941)

Posted By: Without
1080p (FullHD) / BDRip IMDb
It Started with Eve (1941)

It Started with Eve (1941)
BDRip 1080p | MKV | 1 h 30 min | 7.30 GB | 1460x1080 | AVC@11.2 Mb/s
English AAC@117 kb/s, 2 ch | English AAC@161 kb/s, 2 ch (Commentary)
Subs: English, Français, Español
Genre: Comedy, Musical, Romance

In order to please his dying father, a man convinces a hat-check girl to impersonate his fiancée, but complications arise when the father's health suddenly improves.

IMDB - Nominated for 1 Oscar.


General
It.Started.With.Eve.1941.1080p.BluRay.AAC.x264-HANDJOB.mkv
Format : Matroska
Format version : Version 4 / Version 2
File size : 7.30 GB
Duration : 1 h 30 min
Overall bit rate : 11.5 Mb/s
Movie name : It Started with Eve [1941] 1080p BluRay - HJ
Encoded date : UTC 2021-01-07 23:15:25
Writing application : mkvmerge v48.0.0 ('Fortress Around Your Heart') 64-bit
Writing library : libebml v1.4.0 + libmatroska v1.6.0

Video
ID : 1
Format : AVC
Format/Info : Advanced Video Codec
Format profile : High@L4.1
Format settings, CABAC : Yes
Format settings, ReFrames : 5 frames
Codec ID : V_MPEG4/ISO/AVC
Duration : 1 h 30 min
Bit rate : 11.2 Mb/s
Width : 1460 pixels
Height : 1080 pixels
Display aspect ratio : 4:3
Frame rate mode : Constant
Frame rate : 23.976 (24000/1001) FPS
Color space : YUV
Chroma subsampling : 4:2:0
Bit depth : 8 bits
Scan type : Progressive
Bits/(Pixel*Frame) : 0.297
Stream size : 7.12 GB (98%)
Writing library : x264 core 155 r2917 0a84d98
Encoding settings : cabac=1 / ref=5 / deblock=1:-3:-3 / analyse=0x3:0x133 / me=umh / subme=10 / psy=1 / psy_rd=1.00:0.00 / mixed_ref=1 / me_range=32 / chroma_me=1 / trellis=2 / 8x8dct=1 / cqm=0 / deadzone=21,11 / fast_pskip=0 / chroma_qp_offset=-2 / threads=34 / lookahead_threads=8 / sliced_threads=0 / nr=0 / decimate=0 / interlaced=0 / bluray_compat=0 / constrained_intra=0 / bframes=16 / b_pyramid=2 / b_adapt=2 / b_bias=0 / direct=3 / weightb=1 / open_gop=0 / weightp=1 / keyint=240 / keyint_min=24 / scenecut=40 / intra_refresh=0 / rc_lookahead=60 / rc=crf / mbtree=0 / crf=17.0 / qcomp=0.60 / qpmin=0 / qpmax=69 / qpstep=4 / vbv_maxrate=62500 / vbv_bufsize=78125 / crf_max=0.0 / nal_hrd=none / filler=0 / ip_ratio=1.40 / pb_ratio=1.30 / aq=1:0.70
Default : Yes
Forced : No
Color range : Limited
Color primaries : BT.709
Transfer characteristics : BT.709
Matrix coefficients : BT.709

Audio #1
ID : 2
Format : AAC
Format/Info : Advanced Audio Codec
Format profile : LC
Codec ID : A_AAC
Duration : 1 h 30 min
Bit rate : 117 kb/s
Channel(s) : 2 channels
Channel positions : Front: L R
Sampling rate : 48.0 kHz
Frame rate : 46.875 FPS (1024 spf)
Compression mode : Lossy
Delay relative to video : 11 s 0 ms
Stream size : 75.4 MB (1%)
Language : English
Default : Yes
Forced : No

Audio #2
ID : 3
Format : AAC
Format/Info : Advanced Audio Codec
Format profile : LC
Codec ID : A_AAC
Duration : 1 h 30 min
Bit rate : 161 kb/s
Channel(s) : 2 channels
Channel positions : Front: L R
Sampling rate : 48.0 kHz
Frame rate : 46.875 FPS (1024 spf)
Compression mode : Lossy
Delay relative to video : 11 s 0 ms
Stream size : 104 MB (1%)
Title : Commentary with Film Historian Samm Deighan
Language : English
Default : No
Forced : No

Text #1
ID : 4
Format : UTF-8
Codec ID : S_TEXT/UTF8
Codec ID/Info : UTF-8 Plain Text
Duration : 1 h 27 min
Bit rate : 86 b/s
Count of elements : 1540
Stream size : 55.5 KiB (0%)
Language : English
Default : No
Forced : No

Text #2
ID : 5
Format : UTF-8
Codec ID : S_TEXT/UTF8
Codec ID/Info : UTF-8 Plain Text
Duration : 1 h 28 min
Bit rate : 84 b/s
Count of elements : 1170
Stream size : 54.7 KiB (0%)
Language : French
Default : No
Forced : No

Text #3
ID : 6
Format : UTF-8
Codec ID : S_TEXT/UTF8
Codec ID/Info : UTF-8 Plain Text
Duration : 1 h 28 min
Bit rate : 73 b/s
Count of elements : 1171
Stream size : 47.7 KiB (0%)
Language : Spanish
Default : No
Forced : No

Menu
00:00:00.000 : :Chapter 1
00:10:00.600 : :Chapter 2
00:17:10.029 : :Chapter 3
00:29:34.022 : :Chapter 4
00:40:54.202 : :Chapter 5
00:50:29.276 : :Chapter 6
01:06:25.732 : :Chapter 7
01:18:36.212 : :Chapter 8



BDRip 1080p Screenshots

It Started with Eve (1941)

It Started with Eve (1941)

It Started with Eve (1941)

It Started with Eve (1941)


Come Visit My Blog (•‿•)