NG. - JFK: The Lost Assassination Tapes (2018)

Posted By: notbanned
720p (HD) / HDTV
NG. - JFK: The Lost Assassination Tapes (2018)

NG. - JFK: The Lost Assassination Tapes (2018)
HDTV | 960x720 | .MKV/AVC @ 2217 Kbps | 43 min 59 s | 758 MiB
Audio: English AC3 192 kbps, 2 channels | Subs: None
Genre: Documentary

The killing of President John F. Kennedy as told through over a hundred hours of news reports from the days around the assassination.

General
Unique ID : 171438988084075305705557167670675527603 (0x80F9F2B548689FB0B475F6FEE4F657B3)
Complete name : JFK.The.Lost.Assassination.Tapes.2018.720p.mkv
Format : Matroska
Format version : Version 4 / Version 2
File size : 758 MiB
Duration : 43 min 59 s
Overall bit rate : 2 410 kb/s

Video
ID : 1
Format : AVC
Format/Info : Advanced Video Codec
Format profile : High@L4.1
Format settings, CABAC : Yes
Format settings, ReFrames : 5 frames
Codec ID : V_MPEG4/ISO/AVC
Duration : 43 min 59 s
Bit rate : 2 217 kb/s
Width : 960 pixels
Height : 720 pixels
Display aspect ratio : 4:3
Frame rate mode : Constant
Frame rate : 25.000 FPS
Color space : YUV
Chroma subsampling : 4:2:0
Bit depth : 8 bits
Scan type : Progressive
Bits/(Pixel*Frame) : 0.128
Stream size : 698 MiB (92%)
Encoding settings : cabac=1 / ref=5 / deblock=1:-2:-2 / analyse=0x3:0x113 / me=hex / subme=8 / psy=1 / psy_rd=1.00:0.00 / mixed_ref=1 / me_range=16 / chroma_me=1 / trellis=2 / 8x8dct=1 / cqm=0 / deadzone=21,11 / fast_pskip=1 / chroma_qp_offset=-2 / threads=12 / lookahead_threads=2 / sliced_threads=0 / nr=0 / decimate=1 / interlaced=0 / bluray_compat=0 / constrained_intra=0 / bframes=3 / b_pyramid=2 / b_adapt=1 / b_bias=0 / direct=3 / weightb=1 / open_gop=0 / weightp=2 / keyint=250 / keyint_min=25 / scenecut=40 / intra_refresh=0 / rc_lookahead=50 / rc=crf / mbtree=1 / crf=20.0 / qcomp=0.60 / qpmin=0 / qpmax=69 / qpstep=4 / ip_ratio=1.40 / aq=1:1.00
Language : English
Default : Yes
Forced : No

Audio
ID : 2
Format : AC-3
Format/Info : Audio Coding 3
Format settings, Endianness : Big
Codec ID : A_AC3
Duration : 43 min 59 s
Bit rate mode : Constant
Bit rate : 192 kb/s
Channel(s) : 2 channels
Channel positions : Front: L R
Sampling rate : 48.0 kHz
Frame rate : 31.250 FPS (1536 spf)
Bit depth : 16 bits
Compression mode : Lossy
Stream size : 60.4 MiB (8%)
Language : English
Service kind : Complete Main
Default : Yes
Forced : No


Screenshots:

NG. - JFK: The Lost Assassination Tapes (2018)

NG. - JFK: The Lost Assassination Tapes (2018)

NG. - JFK: The Lost Assassination Tapes (2018)

NG. - JFK: The Lost Assassination Tapes (2018)