Jack Reacher: Punto di non ritorno (2016)

Posted By: JohnSmith
Jack Reacher: Punto di non ritorno (2016)

Jack Reacher: Punto di non ritorno / Jack Reacher: Never Go Back (2016)
BDRip | MKV / XviD@1960 kb/s | 720x304 | 1h 58mn | 2.15 GB
Italian: AC3, 640 kb/s (6 ch) | Subtitles: Italian (forced)
Genre: Action | Adventure | Crime | Mystery | Thriller

Susan Turner, maggiore dell'esercito che dirige la vecchia unità investigativa di Jack Reacher, viene arrestata con l’accusa di spionaggio. Reacher, consapevole della sua innocenza, deve aiutarla a uscire di prigione e scoprire la verità dietro una grande cospirazione del governo per proteggere i loro nomi e salvare le loro vite. Fuggitivo dalla legge, Reacher scopre un potenziale segreto del suo passato che potrebbe cambiare la sua vita per sempre.




General
Unique ID : 232764966708162566931012009897362888481 (0xAF1CE6E5754F017EB4973EDB1A869721)
Complete name : A:\Jack.Reacher.2.Punto.Di.Non.Ritorno.2016.iTALiAN.BDRiP.XviD-HDi.mkv
Format : Matroska
Format version : Version 4 / Version 2
File size : 2.15 GiB
Duration : 1 h 58 min
Overall bit rate : 2 599 kb/s
Encoded date : UTC 2017-02-08 06:35:15
Writing application : mkvmerge v8.3.0 ('Over the Horizon') 64bit
Writing library : libebml v1.3.1 + libmatroska v1.4.2

Video
ID : 1
Format : MPEG-4 Visual
Format profile : Advanced Simple@L5
Format settings, BVOP : 1
Format settings, QPel : No
Format settings, GMC : No warppoints
Format settings, Matrix : Default (H.263)
Codec ID : V_MS/VFW/FOURCC / XVID
Codec ID/Hint : XviD
Duration : 1 h 58 min
Bit rate : 1 958 kb/s
Width : 720 pixels
Height : 304 pixels
Display aspect ratio : 2.35:1
Frame rate mode : Constant
Frame rate : 23.976 (23976/1000) FPS
Original frame rate : 23.976 (24000/1001) FPS
Color space : YUV
Chroma subsampling : 4:2:0
Bit depth : 8 bits
Scan type : Progressive
Compression mode : Lossy
Bits/(Pixel*Frame) : 0.373
Stream size : 1.62 GiB (75%)
Writing library : XviD 67
Default : Yes
Forced : No

Audio
ID : 2
Format : AC-3
Format/Info : Audio Coding 3
Mode extension : CM (complete main)
Format settings, Endianness : Big
Codec ID : A_AC3
Duration : 1 h 58 min
Bit rate mode : Constant
Bit rate : 640 kb/s
Channel(s) : 6 channels
Channel positions : Front: L C R, Side: L R, LFE
Sampling rate : 48.0 kHz
Frame rate : 31.250 FPS (1536 spf)
Compression mode : Lossy
Stream size : 541 MiB (25%)
Language : Italian
Default : Yes
Forced : No

Text
ID : 3
Format : UTF-8
Codec ID : S_TEXT/UTF8
Codec ID/Info : UTF-8 Plain Text
Duration : 1 h 48 min
Bit rate : 0 b/s
Count of elements : 9
Stream size : 209 Bytes (0%)
Title : Forced
Language : Italian
Default : Yes
Forced : Yes




Screenshots

Jack Reacher: Punto di non ritorno (2016)

Jack Reacher: Punto di non ritorno (2016)

Jack Reacher: Punto di non ritorno (2016)