Jason Bourne (2016)

Posted By: Without
Jason Bourne (2016)

Jason Bourne (2016)
HDRip | AVI | 720x304 | XviD@1221 kb/s | English AC3@384 kb/s | 6 channels | 2 h 3 min | 1.39 GB
WEB-DL 720p | MKV | 1280x532 | AVC@3971 kb/s | English AC3@384 kb/s | 6 channels | 2 h 3 min | 3.82 GB
WEB-DL 1080p | MKV | 1916x798 | AVC@4488 kb/s | English AC3@384 kb/s | 6 channels | 2 h 3 min | 4.27 GB
Genre: Action, Thriller

The CIA's most dangerous former operative is drawn out of hiding to uncover more explosive truths about his past.

IMDB - 3 nominations


General
Complete name : J:\Torrents\Jason.Bourne.2016.HDRip.XviD.AC3-EVO\Jason.Bourne.2016.HDRip.XviD.AC3-EVO.avi
Format : AVI
Format/Info : Audio Video Interleave
File size : 1.39 GiB
Duration : 2 h 3 min
Overall bit rate : 1 614 kb/s
Writing library : VirtualDub build 32593/release

Video
ID : 0
Format : MPEG-4 Visual
Format profile : Advanced Simple@L5
Format settings, BVOP : 2
Format settings, QPel : No
Format settings, GMC : No warppoints
Format settings, Matrix : Default (H.263)
Muxing mode : Packed bitstream
Codec ID : XVID
Codec ID/Hint : XviD
Duration : 2 h 3 min
Bit rate : 1 221 kb/s
Width : 720 pixels
Height : 304 pixels
Display aspect ratio : 2.35:1
Frame rate : 23.976 (24000/1001) FPS
Color space : YUV
Chroma subsampling : 4:2:0
Bit depth : 8 bits
Scan type : Progressive
Compression mode : Lossy
Bits/(Pixel*Frame) : 0.233
Stream size : 1.05 GiB (76%)
Writing library : XviD 66

Audio
ID : 1
Format : AC-3
Format/Info : Audio Coding 3
Mode extension : CM (complete main)
Format settings, Endianness : Big
Codec ID : 2000
Duration : 2 h 3 min
Bit rate mode : Constant
Bit rate : 384 kb/s
Channel(s) : 6 channels
Channel positions : Front: L C R, Side: L R, LFE
Sampling rate : 48.0 kHz
Frame rate : 31.250 FPS (1536 spf)
Bit depth : 16 bits
Compression mode : Lossy
Stream size : 338 MiB (24%)
Alignment : Aligned on interleaves
Interleave, duration : 42 ms (1.00 video frame)
Interleave, preload duration : 512 ms

General
Unique ID : 172321172761588589959543884873413981350 (0x81A3D9C555D2F51AAEFB4632E04874A6)
Complete name : J:\Torrents\Jason.Bourne.2016.720p.WEB-DL.H264.AC3-EVO\Jason.Bourne.2016.720p.WEB-DL.H264.AC3-EVO.mkv
Format : Matroska
Format version : Version 4 / Version 2
File size : 3.82 GiB
Duration : 2 h 3 min
Overall bit rate : 4 444 kb/s
Movie name : EVO
Encoded date : UTC 2016-11-02 14:41:13
Writing application : mkvmerge v6.7.0 ('Back to the Ground') 64bit built on Jan 8 2014 15:10:52
Writing library : libebml v1.3.0 + libmatroska v1.4.1

Video
ID : 1
Format : AVC
Format/Info : Advanced Video Codec
Format profile : Main@L3.1
Format settings, CABAC : No
Format settings, ReFrames : 2 frames
Codec ID : V_MPEG4/ISO/AVC
Duration : 2 h 3 min
Bit rate : 3 971 kb/s
Width : 1 280 pixels
Height : 532 pixels
Display aspect ratio : 2.40:1
Frame rate mode : Constant
Frame rate : 23.976 FPS
Color space : YUV
Chroma subsampling : 4:2:0
Bit depth : 8 bits
Scan type : Progressive
Bits/(Pixel*Frame) : 0.243
Stream size : 3.42 GiB (89%)
Language : English
Default : Yes
Forced : No
Color range : Limited
Color primaries : BT.709
Transfer characteristics : BT.709
Matrix coefficients : BT.709

Audio
ID : 2
Format : AC-3
Format/Info : Audio Coding 3
Mode extension : CM (complete main)
Format settings, Endianness : Big
Codec ID : A_AC3
Duration : 2 h 3 min
Bit rate mode : Constant
Bit rate : 384 kb/s
Channel(s) : 6 channels
Channel positions : Front: L C R, Side: L R, LFE
Sampling rate : 48.0 kHz
Frame rate : 31.250 FPS (1536 spf)
Bit depth : 16 bits
Compression mode : Lossy
Stream size : 338 MiB (9%)
Language : English
Default : Yes
Forced : No

Menu
00:00:00.000 : en:1
00:04:06.000 : en:2
00:08:23.000 : en:3
00:13:34.000 : en:4
00:18:30.000 : en:5
00:24:09.000 : en:6
00:29:20.000 : en:7
00:36:17.000 : en:8
00:42:22.000 : en:9
00:48:24.000 : en:10
00:55:14.000 : en:11
01:01:11.000 : en:12
01:08:29.000 : en:13
01:16:25.000 : en:14
01:24:47.000 : en:15
01:29:08.000 : en:16
01:37:54.000 : en:17
01:44:28.000 : en:18
01:48:05.000 : en:19
01:54:03.000 : en:20

General
Unique ID : 186820398545676145848719745354979157260 (0x8C8C4CCB5E2D27A7BC9EE1C26425250C)
Complete name : J:\Torrents\Jason.Bourne.2016.1080p.WEB-DL.H264.AC3-EVO\Jason.Bourne.2016.1080p.WEB-DL.H264.AC3-EVO.mkv
Format : Matroska
Format version : Version 4 / Version 2
File size : 4.28 GiB
Duration : 2 h 3 min
Overall bit rate : 4 971 kb/s
Movie name : EVO
Encoded date : UTC 2016-11-02 14:39:29
Writing application : mkvmerge v6.7.0 ('Back to the Ground') 64bit built on Jan 8 2014 15:10:52
Writing library : libebml v1.3.0 + libmatroska v1.4.1

Video
ID : 1
Format : AVC
Format/Info : Advanced Video Codec
Format profile : High@L4
Format settings, CABAC : Yes
Format settings, ReFrames : 5 frames
Codec ID : V_MPEG4/ISO/AVC
Duration : 2 h 3 min
Bit rate : 4 488 kb/s
Width : 1 916 pixels
Height : 798 pixels
Display aspect ratio : 2.40:1
Frame rate mode : Constant
Frame rate : 23.976 FPS
Color space : YUV
Chroma subsampling : 4:2:0
Bit depth : 8 bits
Scan type : Progressive
Bits/(Pixel*Frame) : 0.122
Stream size : 3.86 GiB (90%)
Language : English
Default : Yes
Forced : No
Color range : Limited
Color primaries : BT.709
Transfer characteristics : BT.709
Matrix coefficients : BT.709

Audio
ID : 2
Format : AC-3
Format/Info : Audio Coding 3
Mode extension : CM (complete main)
Format settings, Endianness : Big
Codec ID : A_AC3
Duration : 2 h 3 min
Bit rate mode : Constant
Bit rate : 384 kb/s
Channel(s) : 6 channels
Channel positions : Front: L C R, Side: L R, LFE
Sampling rate : 48.0 kHz
Frame rate : 31.250 FPS (1536 spf)
Bit depth : 16 bits
Compression mode : Lossy
Stream size : 338 MiB (8%)
Language : English
Default : Yes
Forced : No

Menu
00:00:00.000 : en:1
00:04:06.000 : en:2
00:08:23.000 : en:3
00:13:34.000 : en:4
00:18:30.000 : en:5
00:24:09.000 : en:6
00:29:20.000 : en:7
00:36:17.000 : en:8
00:42:22.000 : en:9
00:48:24.000 : en:10
00:55:14.000 : en:11
01:01:11.000 : en:12
01:08:29.000 : en:13
01:16:25.000 : en:14
01:24:47.000 : en:15
01:29:08.000 : en:16
01:37:54.000 : en:17
01:44:28.000 : en:18
01:48:05.000 : en:19
01:54:03.000 : en:20


HDRip Screenshots

Jason Bourne (2016)

Jason Bourne (2016)

Jason Bourne (2016)


WEB-DL 720p Screenshots

Jason Bourne (2016)

Jason Bourne (2016)

Jason Bourne (2016)


WEB-DL 1080p Screenshots

Jason Bourne (2016)

Jason Bourne (2016)

Jason Bourne (2016)


Come Visit My Blog (•‿•)