Jurassic World: Il regno distrutto / Jurassic World: Fallen Kingdom (2018)

Posted By: JohnSmith
SD / WEB-DL IMDb
Jurassic World: Il regno distrutto / Jurassic World: Fallen Kingdom (2018)

Jurassic World: Il regno distrutto / Jurassic World: Fallen Kingdom (2018)
HDRip LD | AVI / XviD@1600 kb/s | 720x304 | 2h 8mn | 1.55 GB | Italian (dubbed): MP3, 128 kb/s (2 ch)
Genre: Action | Adventure | Sci-Fi

Sono passati tre anni da quando il parco tematico di Jurassic World è stato distrutto dai dinosauri scappati dalle gabbie di contenimento; Isla Nublar adesso è un luogo selvaggio abbandonato dagli umani dove i dinosauri sopravvissuti cercano riparo nella giungla. Al risveglio del vulcano, inattivo fino a quel momento, Owen (Chris Pratt) e Claire (Bryce Dallas Howard) intraprendono una campagna per salvaguardare le specie di dinosauri ancora in vita da un evento di distruzione di massa. Owen è intento a cercare Blue, il suo principale velociraptor ancora disperso nella foresta, mentre Claire nel frattempo ha sviluppato un rispetto nei confronti di queste creature, divenute ormai la sua missione. Giunti sull'isola proprio mentre la lava inizia a scorrere, i due scoprono anche una cospirazione di portata globale che potrebbe far ritornare l'intero pianeta a un rovinoso stato di disordine come non si vedeva dalla preistoria.




General
Complete name : A:\Jurassic.World.Il.Regno.Distrutto.2018.iTALiAN.LD.WEBDL.XviD-CriMiNaL.avi
Format : AVI
Format/Info : Audio Video Interleave
File size : 1.55 GiB
Duration : 2 h 8 min
Overall bit rate : 1 734 kb/s
Writing library : VirtualDub build 35491/release

Video
ID : 0
Format : MPEG-4 Visual
Format profile : Advanced Simple@L5
Format settings, BVOP : 2
Format settings, QPel : No
Format settings, GMC : No warppoints
Format settings, Matrix : Default (H.263)
Muxing mode : Packed bitstream
Codec ID : XVID
Codec ID/Hint : XviD
Duration : 2 h 8 min
Bit rate : 1 597 kb/s
Width : 720 pixels
Height : 304 pixels
Display aspect ratio : 2.35:1
Frame rate : 23.976 (24000/1001) FPS
Color space : YUV
Chroma subsampling : 4:2:0
Bit depth : 8 bits
Scan type : Progressive
Compression mode : Lossy
Bits/(Pixel*Frame) : 0.304
Stream size : 1.43 GiB (92%)
Writing library : XviD 67

Audio
ID : 1
Format : MPEG Audio
Format version : Version 1
Format profile : Layer 3
Mode : Joint stereo
Mode extension : MS Stereo
Codec ID : 55
Codec ID/Hint : MP3
Duration : 2 h 8 min
Bit rate mode : Constant
Bit rate : 128 kb/s
Channel(s) : 2 channels
Sampling rate : 48.0 kHz
Compression mode : Lossy
Stream size : 117 MiB (7%)
Alignment : Split accross interleaves
Interleave, duration : 42 ms (1.00 video frame)
Interleave, preload duratio : 500 ms
Writing library : LAME3.99r
Encoding settings : -m j -V 4 -q 3 -lowpass 17 -b 128




Screenshots

Jurassic World: Il regno distrutto / Jurassic World: Fallen Kingdom (2018)

Jurassic World: Il regno distrutto / Jurassic World: Fallen Kingdom (2018)

Jurassic World: Il regno distrutto / Jurassic World: Fallen Kingdom (2018)