Kan shang qu hen mei / Little Red Flowers (2006)

Posted By: Rare-1
Kan shang qu hen mei / Little Red Flowers (2006)

Kan shang qu hen mei / Little Red Flowers (2006)
DVDRip | MKV | 716 x 550 | AVC @ 2110 Kbps | 87 min | 1.41 Gb
Audio: Mandarin AC3 2.0 @ 192 Kbps | Subs: English, Brazilian Portuguese, German (embedded)
Genre: Comedy, Drama | China

Qiang is a four-year-old little rebel, possessed of a pair of luminous eyes and a precociously indomitable will. His father deposits him at a well-appointed residential kindergarten in post-1949 Beijing, since his parents are often away. Life at the kindergarten appears rich and colourful, made up of a variety of cheerfully sunny rituals and games meant to train these children to be good members of society.

IMDB 6.8/10 from 1297 users

Director: Yuan Zhang
Writer: Shuo Wang (novel), Dai Ning, Yuan Zhang
Actors: Bowen Dong, Yuanyuan Ning, Chen Manyuan, Zhao Rui
Rated: N/A
Runtime: 87 min

But it's not so easy for Qiang to adapt to this kind of carefully organized, minutely scrutinized collective life. A fierce individualist in miniature, he tries but fails to conform to the model his teachers enforce. Yet he still craves the reward that the other students win: the little red flowers awarded each day as tokens for good behaviour. But Qiang doesn't win any flowers: he can't yet dress himself, and doesn't play together with the other kids. He even dares to talk back to the strict Teacher Li and Principal Kong when they try to impose some discipline on him. Gradually, his charisma and bravado start to win over his classmates: their stealthy little rebellions gain steam when he succeeds in convincing everyone that Teacher Li is a child-eating monster in disguise. When their attempt to capture her is thwarted, Qiang's resistance develops a more disturbing dimension, and he is forcibly ostracized from his companions. Will he succumb to the adult-enforced conformity around him, or will he insist on growing up his own way, by his own rules?

Kan shang qu hen mei / Little Red Flowers (2006)



General
Unique ID : 248842832839194971378638459249740198323 (0xBB3562E5F0CBF79EBAE8797AFCDBB1B3)
Complete name : I:\HDNLUF037\Little.Red.Flowers.2006.DVDRip.x264-HANDJOB.mkv
Format : Matroska
Format version : Version 4 / Version 2
File size : 1.41 GiB
Duration : 1 h 27 min
Overall bit rate : 2 301 kb/s
Movie name : Little Red Flowers [2006] DVDRip - HJ
Encoded date : UTC 2017-08-12 20:23:51
Writing application : mkvmerge v14.0.0 ('Flow') 64bit
Writing library : libebml v1.3.4 + libmatroska v1.4.5

Video
ID : 1
Format : AVC
Format/Info : Advanced Video Codec
Format profile : High@L4
Format settings, CABAC : Yes
Format settings, ReFrames : 16 frames
Codec ID : V_MPEG4/ISO/AVC
Duration : 1 h 27 min
Bit rate : 2 110 kb/s
Width : 716 pixels
Height : 550 pixels
Display aspect ratio : 1.85:1
Frame rate mode : Constant
Frame rate : 25.000 FPS
Color space : YUV
Chroma subsampling : 4:2:0
Bit depth : 8 bits
Scan type : Progressive
Bits/(Pixel*Frame) : 0.214
Stream size : 1.29 GiB (92%)
Writing library : x264 core 148 r2708 86b7198
Encoding settings : cabac=1 / ref=16 / deblock=1:-3:-3 / analyse=0x3:0x133 / me=umh / subme=11 / psy=1 / psy_rd=1.00:0.00 / mixed_ref=0 / me_range=32 / chroma_me=1 / trellis=2 / 8x8dct=1 / cqm=0 / deadzone=21,11 / fast_pskip=0 / chroma_qp_offset=-2 / threads=6 / lookahead_threads=1 / sliced_threads=0 / nr=0 / decimate=0 / interlaced=0 / bluray_compat=0 / constrained_intra=0 / bframes=16 / b_pyramid=2 / b_adapt=2 / b_bias=0 / direct=3 / weightb=1 / open_gop=0 / weightp=2 / keyint=250 / keyint_min=25 / scenecut=40 / intra_refresh=0 / rc=crf / mbtree=0 / crf=17.2 / qcomp=0.60 / qpmin=0 / qpmax=69 / qpstep=4 / ip_ratio=1.40 / pb_ratio=1.30 / aq=2:1.00
Language : Chinese
Default : Yes
Forced : No
Color range : Limited
Color primaries : BT.601 PAL
Transfer characteristics : BT.709
Matrix coefficients : BT.601

Audio
ID : 2
Format : AC-3
Format/Info : Audio Coding 3
Mode extension : CM (complete main)
Format settings, Endianness : Big
Codec ID : A_AC3
Duration : 1 h 27 min
Bit rate mode : Constant
Bit rate : 192 kb/s
Channel(s) : 2 channels
Channel positions : Front: L R
Sampling rate : 48.0 kHz
Frame rate : 31.250 FPS (1536 spf)
Bit depth : 16 bits
Compression mode : Lossy
Stream size : 121 MiB (8%)
Title : Mandarin
Language : Chinese
Default : Yes
Forced : No

Text #1
ID : 3
Format : UTF-8
Codec ID : S_TEXT/UTF8
Codec ID/Info : UTF-8 Plain Text
Duration : 1 h 23 min
Bit rate : 26 b/s
Count of elements : 538
Stream size : 16.1 KiB (0%)
Title : English
Language : English
Default : Yes
Forced : No

Text #2
ID : 4
Format : UTF-8
Codec ID : S_TEXT/UTF8
Codec ID/Info : UTF-8 Plain Text
Duration : 1 h 23 min
Bit rate : 27 b/s
Count of elements : 538
Stream size : 17.0 KiB (0%)
Title : Brazilian Portuguese
Language : Portuguese
Default : No
Forced : No

Text #3
ID : 5
Format : UTF-8
Codec ID : S_TEXT/UTF8
Codec ID/Info : UTF-8 Plain Text
Duration : 1 h 22 min
Bit rate : 29 b/s
Count of elements : 537
Stream size : 18.1 KiB (0%)
Title : German
Language : German
Default : No
Forced : No

Menu
00:00:00.000 : en:1. Opening Titles
00:07:17.360 : en:2. School Routine
00:11:59.160 : en:3. Toilet Training
00:17:14.760 : en:4. Dressing Lesson
00:24:09.560 : en:5. Practical Joke
00:28:12.080 : en:6. Little Red Flowers
00:34:18.120 : en:7. Playtime
00:39:19.520 : en:8. Making Friends
00:44:30.000 : en:9. Dreamer
00:51:00.400 : en:10. Outdoor Games
00:55:51.760 : en:11. Mini Adventure
01:01:32.960 : en:12. Night-Time Meeting
01:08:22.440 : en:13. School Bully
01:13:59.880 : en:14. Locked Up
01:18:44.560 : en:15. Lonely Punishment
01:23:21.760 : en:16. End Credits


Many Thanks to Original uploader.


For More Rare Movies Check out my blog!


Download Links :

No Mirrors Please