Keith Richards: Under the Influence (2015) in 4K

Posted By: a4s
Keith Richards: Under the Influence (2015) in 4K

Keith Richards: Under the Influence (2015)
HDTV | MKV / AVC, 32.9 Mbps | 3840x1600 | English: AC3, 640 Kbps (6 ch) | 1h 21mn | 19.5 GiB
Subtitles: English | French | German | Spanish
Genre: Documentary

In a documentary with unparalleled access, discover the people and sounds that inspired rock 'n' roll legend Keith Richards from childhood to today.
IMDb

General
Unique ID : 236969852378880868720705878588943701194 (0xB246BBC41F8338269D1CAB02D44B14CA)
Complete name : Keith.Richards.Under.the.Influence.2015.2160p.Netflix.WEBRip.DD5.1.x264-TrollUHD.mkv
Format : Matroska
Format version : Version 4 / Version 2
File size : 19.5 GiB
Duration : 1h 21mn
Overall bit rate : 34.3 Mbps
Encoded date : UTC 2015-12-23 18:46:13
Writing application : mkvmerge v8.3.0 ('Over the Horizon') 64bit
Writing library : libebml v1.3.1 + libmatroska v1.4.2
DURATION : 01:20:33.663000000
NUMBER_OF_FRAMES : 857
NUMBER_OF_BYTES : 35023
_STATISTICS_WRITING_APP : mkvmerge v8.3.0 ('Over the Horizon') 64bit
_STATISTICS_WRITING_DATE_UTC : 2015-12-23 18:46:13
_STATISTICS_TAGS : BPS DURATION NUMBER_OF_FRAMES NUMBER_OF_BYTES

Video
ID : 1
Format : AVC
Format/Info : Advanced Video Codec
Format profile : High@L5.1
Format settings, CABAC : Yes
Format settings, ReFrames : 5 frames
Codec ID : V_MPEG4/ISO/AVC
Duration : 1h 21mn
Bit rate : 32.9 Mbps
Width : 3 840 pixels
Height : 1 600 pixels
Display aspect ratio : 2.40:1
Frame rate mode : Constant
Frame rate : 23.976 fps
Color space : YUV
Chroma subsampling : 4:2:0
Bit depth : 8 bits
Scan type : Progressive
Bits/(Pixel*Frame) : 0.224
Stream size : 18.7 GiB (96%)
Writing library : x264 core 148 r2638 7599210
Encoding settings : cabac=1 / ref=5 / deblock=1:-2:-2 / analyse=0x3:0x133 / me=umh / subme=10 / psy=1 / psy_rd=1.00:0.15 / mixed_ref=1 / me_range=48 / chroma_me=1 / trellis=2 / 8x8dct=1 / cqm=0 / deadzone=21,11 / fast_pskip=1 / chroma_qp_offset=-3 / threads=12 / lookahead_threads=2 / sliced_threads=0 / nr=0 / decimate=0 / interlaced=0 / bluray_compat=0 / constrained_intra=0 / bframes=8 / b_pyramid=2 / b_adapt=2 / b_bias=0 / direct=3 / weightb=1 / open_gop=0 / weightp=2 / keyint=240 / keyint_min=23 / scenecut=40 / intra_refresh=0 / rc_lookahead=60 / rc=crf / mbtree=1 / crf=18.0 / qcomp=0.70 / qpmin=0 / qpmax=69 / qpstep=4 / vbv_maxrate=300000 / vbv_bufsize=300000 / crf_max=0.0 / nal_hrd=none / filler=0 / ip_ratio=1.30 / aq=1:0.90
Default : Yes
Forced : No

Audio
ID : 2
Format : AC-3
Format/Info : Audio Coding 3
Mode extension : CM (complete main)
Format settings, Endianness : Big
Codec ID : A_AC3
Duration : 1h 21mn
Bit rate mode : Constant
Bit rate : 640 Kbps
Channel(s) : 6 channels
Channel positions : Front: L C R, Side: L R, LFE
Sampling rate : 48.0 KHz
Bit depth : 16 bits
Compression mode : Lossy
Stream size : 372 MiB (2%)
Language : English
Default : Yes
Forced : No

Text #1
ID : 3
Format : UTF-8
Codec ID : S_TEXT/UTF8
Codec ID/Info : UTF-8 Plain Text
Language : English
Default : Yes
Forced : No

Text #2
ID : 4
Format : UTF-8
Codec ID : S_TEXT/UTF8
Codec ID/Info : UTF-8 Plain Text
Language : French
Default : No
Forced : No

Text #3
ID : 5
Format : UTF-8
Codec ID : S_TEXT/UTF8
Codec ID/Info : UTF-8 Plain Text
Language : German
Default : No
Forced : No

Text #4
ID : 6
Format : UTF-8
Codec ID : S_TEXT/UTF8
Codec ID/Info : UTF-8 Plain Text
Language : Spanish
Default : No
Forced : No

Screenshots :
Keith Richards: Under the Influence (2015) in 4K

Keith Richards: Under the Influence (2015) in 4K

Keith Richards: Under the Influence (2015) in 4K


Downloads :
Keith.Richards.Under.the.Influence.2015.2160p.Netflix.WEBRip.DD5.1.x264-TrollUHD.mkv.part01.rar
Keith.Richards.Under.the.Influence.2015.2160p.Netflix.WEBRip.DD5.1.x264-TrollUHD.mkv.part02.rar
Keith.Richards.Under.the.Influence.2015.2160p.Netflix.WEBRip.DD5.1.x264-TrollUHD.mkv.part03.rar
Keith.Richards.Under.the.Influence.2015.2160p.Netflix.WEBRip.DD5.1.x264-TrollUHD.mkv.part04.rar
Keith.Richards.Under.the.Influence.2015.2160p.Netflix.WEBRip.DD5.1.x264-TrollUHD.mkv.part05.rar
Keith.Richards.Under.the.Influence.2015.2160p.Netflix.WEBRip.DD5.1.x264-TrollUHD.mkv.part06.rar
Keith.Richards.Under.the.Influence.2015.2160p.Netflix.WEBRip.DD5.1.x264-TrollUHD.mkv.part07.rar
Keith.Richards.Under.the.Influence.2015.2160p.Netflix.WEBRip.DD5.1.x264-TrollUHD.mkv.part08.rar
Keith.Richards.Under.the.Influence.2015.2160p.Netflix.WEBRip.DD5.1.x264-TrollUHD.mkv.part09.rar
Keith.Richards.Under.the.Influence.2015.2160p.Netflix.WEBRip.DD5.1.x264-TrollUHD.mkv.part10.rar
Keith.Richards.Under.the.Influence.2015.2160p.Netflix.WEBRip.DD5.1.x264-TrollUHD.mkv.part11.rar
Keith.Richards.Under.the.Influence.2015.2160p.Netflix.WEBRip.DD5.1.x264-TrollUHD.mkv.part12.rar
Keith.Richards.Under.the.Influence.2015.2160p.Netflix.WEBRip.DD5.1.x264-TrollUHD.mkv.part13.rar
Keith.Richards.Under.the.Influence.2015.2160p.Netflix.WEBRip.DD5.1.x264-TrollUHD.mkv.part14.rar
Keith.Richards.Under.the.Influence.2015.2160p.Netflix.WEBRip.DD5.1.x264-TrollUHD.mkv.part15.rar
Keith.Richards.Under.the.Influence.2015.2160p.Netflix.WEBRip.DD5.1.x264-TrollUHD.mkv.part16.rar
Keith.Richards.Under.the.Influence.2015.2160p.Netflix.WEBRip.DD5.1.x264-TrollUHD.mkv.part17.rar
Keith.Richards.Under.the.Influence.2015.2160p.Netflix.WEBRip.DD5.1.x264-TrollUHD.mkv.part18.rar
Keith.Richards.Under.the.Influence.2015.2160p.Netflix.WEBRip.DD5.1.x264-TrollUHD.mkv.part19.rar
Keith.Richards.Under.the.Influence.2015.2160p.Netflix.WEBRip.DD5.1.x264-TrollUHD.mkv.part20.rar