Killing Them Softly (2012)

Posted By: NaVi7
Killing Them Softly (2012)

Killing Them Softly (2012)
BDRip 480p | AVI / XVID, 1611 Kbps | 720x304 | 1h 37mn | 1.40 GB | English: AC3, 448 Kbps (6 ch) | Subtitles: none
BDRip 720p | MKV / AVC, 5595 Kbps | 1280x534 | 1h 37mn | 5.23 GB
Russian: AC3, 448 Kbps (6 ch) | English: DTS, 1509 Kbps (6 ch) | Subtitles: English, Dutch, Greek
Genre: Crime | Drama | Thriller

Three amateurs stickup a Mob protected card game, causing the local criminal economy to collapse. Brad Pitt plays the hitman hired to track them down and restore order. Killing Them Softly also features Richard Jenkins , James Gandolfini, Ray Liotta, Scoot McNairy, Ben Mendelsohn, and Vincent Curatola. Max Casella, Trevor Long, Slaine and Sam Shepard also make appearances.

imdb - 2 wins & 2 nominations.

General
Complete name : Killing.Them.Softly.2012.480p.BRRip.XviD.AC3-PTpOWeR.avi
Format : AVI
Format/Info : Audio Video Interleave
File size : 1.40 GiB
Duration : 1h 37mn
Overall bit rate : 2 068 Kbps
Writing application : VirtualDubMod 1.5.10.2 (build 2540/release)
Writing library : VirtualDubMod build 2540/release

Video
ID : 0
Format : MPEG-4 Visual
Format profile : Advanced Simple@L5
Format settings, BVOP : 2
Format settings, QPel : No
Format settings, GMC : No warppoints
Format settings, Matrix : Default (H.263)
Muxing mode : Packed bitstream
Codec ID : XVID
Codec ID/Hint : XviD
Duration : 1h 37mn
Bit rate : 1 611 Kbps
Width : 720 pixels
Height : 304 pixels
Display aspect ratio : 2.35:1
Frame rate : 24.000 fps
Color space : YUV
Chroma subsampling : 4:2:0
Bit depth : 8 bits
Scan type : Progressive
Compression mode : Lossy
Bits/(Pixel*Frame) : 0.307
Stream size : 1.09 GiB (78%)
Writing library : XviD 63

Audio
ID : 1
Format : AC-3
Format/Info : Audio Coding 3
Mode extension : CM (complete main)
Format settings, Endianness : Big
Codec ID : 2000
Duration : 1h 37mn
Bit rate mode : Constant
Bit rate : 448 Kbps
Channel(s) : 6 channels
Channel positions : Front: L C R, Side: L R, LFE
Sampling rate : 48.0 KHz
Bit depth : 16 bits
Compression mode : Lossy
Stream size : 311 MiB (22%)
Alignment : Split accross interleaves
Interleave, duration : 42 ms (1.00 video frame)
Interleave, preload duration : 500 ms

General
Unique ID : 215664593457553419482782515590384245365 (0xA23F7D66B46AB8E390DAE4EE4F36DA75)
Complete name : Killing.Them.Softly.2012.720p.mkv
Format : Matroska
Format version : Version 4 / Version 2
File size : 5.23 GiB
Duration : 1h 37mn
Overall bit rate : 7 705 Kbps
Encoded date : UTC 2010-02-22 21:41:31
Writing application : mkvmerge v5.9.0 ('On The Loose') built on Dec 9 2012 15:37:01
Writing library : libebml v1.3.0 + libmatroska v1.4.0

Video
ID : 1
Format : AVC
Format/Info : Advanced Video Codec
Format profile : High@L4.1
Format settings, CABAC : Yes
Format settings, ReFrames : 5 frames
Muxing mode : Header stripping
Codec ID : V_MPEG4/ISO/AVC
Duration : 1h 37mn
Bit rate : 5 595 Kbps
Nominal bit rate : 6 000 Kbps
Width : 1 280 pixels
Height : 534 pixels
Display aspect ratio : 2.40:1
Frame rate mode : Constant
Frame rate : 24.000 fps
Color space : YUV
Chroma subsampling : 4:2:0
Bit depth : 8 bits
Scan type : Progressive
Bits/(Pixel*Frame) : 0.341
Stream size : 3.80 GiB (73%)
Writing library : x264 core 129 r2230 1cffe9f
Encoding settings : cabac=1 / ref=5 / deblock=1:0:0 / analyse=0x3:0x113 / me=umh / subme=8 / psy=1 / psy_rd=1.00:0.00 / mixed_ref=1 / me_range=16 / chroma_me=1 / trellis=1 / 8x8dct=1 / cqm=0 / deadzone=21,11 / fast_pskip=1 / chroma_qp_offset=-2 / threads=16 / lookahead_threads=2 / sliced_threads=0 / nr=0 / decimate=1 / interlaced=0 / bluray_compat=0 / constrained_intra=0 / bframes=3 / b_pyramid=2 / b_adapt=1 / b_bias=0 / direct=1 / weightb=1 / open_gop=0 / weightp=2 / keyint=240 / keyint_min=24 / scenecut=40 / intra_refresh=0 / rc_lookahead=60 / rc=abr / mbtree=1 / bitrate=6000 / ratetol=1.0 / qcomp=0.60 / qpmin=0 / qpmax=69 / qpstep=4 / ip_ratio=1.40 / aq=1:1.00
Language : English
Default : Yes
Forced : No

Audio #1
ID : 2
Format : AC-3
Format/Info : Audio Coding 3
Mode extension : CM (complete main)
Format settings, Endianness : Big
Muxing mode : Header stripping
Codec ID : A_AC3
Duration : 1h 37mn
Bit rate mode : Constant
Bit rate : 448 Kbps
Channel(s) : 6 channels
Channel positions : Front: L C R, Side: L R, LFE
Sampling rate : 48.0 KHz
Bit depth : 16 bits
Compression mode : Lossy
Stream size : 311 MiB (6%)
Default : Yes
Forced : Yes

Audio #2
ID : 3
Format : DTS
Format/Info : Digital Theater Systems
Mode : 16
Format settings, Endianness : Big
Muxing mode : Header stripping
Codec ID : A_DTS
Duration : 1h 37mn
Bit rate mode : Constant
Bit rate : 1 509 Kbps
Channel(s) : 6 channels
Channel positions : Front: L C R, Side: L R, LFE
Sampling rate : 48.0 KHz
Bit depth : 24 bits
Compression mode : Lossy
Stream size : 1.02 GiB (20%)
Language : English
Default : No
Forced : No

Text #1
ID : 4
Format : UTF-8
Codec ID : S_TEXT/UTF8
Codec ID/Info : UTF-8 Plain Text
Language : English
Default : No
Forced : No

Text #2
ID : 5
Format : UTF-8
Codec ID : S_TEXT/UTF8
Codec ID/Info : UTF-8 Plain Text
Language : Dutch
Default : No
Forced : No

Text #3
ID : 6
Format : VobSub
Muxing mode : zlib
Codec ID : S_VOBSUB
Codec ID/Info : The same subtitle format used on DVDs
Language : Greek
Default : No
Forced : No


screenshots - BDRip 480p:

Killing Them Softly (2012)

Killing Them Softly (2012)

Killing Them Softly (2012)


screenshots - BDRip 720p:

Killing Them Softly (2012)

Killing Them Softly (2012)

Killing Them Softly (2012)


Welcome to My Blog!

Subscribe to My Newsletter!

No more mirrors!

If you want to download it, but found out that links are dead, just leave a comment or PM me!
Download Links:
http://rapidshare.com/files/3635423680/225.rar - BDRip 480p
http://rapidshare.com/files/1506044528/226.rar - BDRip 720p
Links to RapidGator and Uploaded are inside the html file. Download the file and open it in your browser.