King of Jazz (1930)

Posted By: Without
1080p (FullHD) / BDRip IMDb
King of Jazz (1930)

King of Jazz (1930)
BDRip | MKV | 720x534 | AVC@1778 kb/s | English AAC@84.7 kb/s
Subs: English | 1 channel | 1 h 40 min | 1.30 GB
BDRip 720p | MKV | 976x720 | AVC@7225 kb/s | English FLAC@569 kb/s
Subs: English | 1 channel | 1 h 40 min | 5.46 GB
BDRip 1080p | MKV | 1456x1080 | AVC@13.5 Mb/s | English FLAC@569 kb/s
Subs: English | 1 channel | 1 h 40 min | 9.83 GB
Genre: Animation, Comedy, Music

This revue presents its numbers around the orchestra leader Paul Whiteman, besides that it shows in it's final number that the European popular music are the roots of American popular music, called Jazz.

IMDB - Won 1 Oscar. Another 1 win.


General
king.of.jazz.1930.bdrip.x264-dev0.mkv
Format : Matroska
Format version : Version 4 / Version 2
File size : 1.31 GiB
Duration : 1 h 40 min
Overall bit rate : 1 865 kb/s
Encoded date : UTC 2018-06-14 04:57:34
Writing application : mkvmerge v8.3.0 ('Over the Horizon') 64bit
Writing library : libebml v1.3.1 + libmatroska v1.4.2

Video
ID : 1
Format : AVC
Format/Info : Advanced Video Codec
Format profile : High@L3.1
Format settings, CABAC : Yes
Format settings, RefFrames : 5 frames
Codec ID : V_MPEG4/ISO/AVC
Duration : 1 h 40 min
Bit rate : 1 778 kb/s
Width : 720 pixels
Height : 534 pixels
Display aspect ratio : 4:3
Frame rate mode : Constant
Frame rate : 23.976 (24000/1001) FPS
Color space : YUV
Chroma subsampling : 4:2:0
Bit depth : 8 bits
Scan type : Progressive
Bits/(Pixel*Frame) : 0.193
Stream size : 1.25 GiB (95%)
Writing library : x264 core 155 r2901 7d0ff22
Encoding settings : cabac=1 / ref=5 / deblock=1:-3:-3 / analyse=0x3:0x113 / me=umh / subme=8 / psy=1 / psy_rd=1.00:0.15 / mixed_ref=1 / me_range=16 / chroma_me=1 / trellis=2 / 8x8dct=1 / cqm=0 / deadzone=21,11 / fast_pskip=1 / chroma_qp_offset=-3 / threads=17 / lookahead_threads=2 / sliced_threads=0 / nr=0 / decimate=1 / interlaced=0 / bluray_compat=0 / constrained_intra=0 / bframes=3 / b_pyramid=2 / b_adapt=1 / b_bias=0 / direct=3 / weightb=1 / open_gop=0 / weightp=2 / keyint=240 / keyint_min=24 / scenecut=40 / intra_refresh=0 / rc_lookahead=50 / rc=crf / mbtree=1 / crf=21.0 / qcomp=0.60 / qpmin=0 / qpmax=69 / qpstep=4 / ip_ratio=1.40 / aq=1:1.00
Language : English
Default : Yes
Forced : No
Color range : Limited
Matrix coefficients : BT.709

Audio
ID : 2
Format : AAC
Format/Info : Advanced Audio Codec
Format profile : LC
Codec ID : A_AAC
Duration : 1 h 40 min
Bit rate : 84.7 kb/s
Channel(s) : 1 channel
Channel positions : Front: C
Sampling rate : 48.0 kHz
Frame rate : 46.875 FPS (1024 SPF)
Compression mode : Lossy
Delay relative to video : 9 ms
Stream size : 60.8 MiB (5%)
Language : English
Default : Yes
Forced : No

Menu
00:00:00.000 : en:00:00:00.000
00:02:41.745 : en:00:02:41.745
00:05:21.029 : en:00:05:21.029
00:10:34.801 : en:00:10:34.801
00:12:35.880 : en:00:12:35.880
00:20:46.912 : en:00:20:46.912
00:25:28.902 : en:00:25:28.902
00:26:20.746 : en:00:26:20.746
00:29:06.828 : en:00:29:06.828
00:35:16.489 : en:00:35:16.489
00:35:59.157 : en:00:35:59.157
00:40:00.023 : en:00:40:00.023
00:46:30.871 : en:00:46:30.871
00:46:51.058 : en:00:46:51.058
00:48:33.702 : en:00:48:33.702
00:51:38.512 : en:00:51:38.512
01:01:24.848 : en:01:01:24.848
01:05:09.739 : en:01:05:09.739
01:10:21.217 : en:01:10:21.217
01:11:37.293 : en:01:11:37.293
01:17:54.503 : en:01:17:54.503
01:21:21.085 : en:01:21:21.085
01:24:57.718 : en:01:24:57.718
01:38:48.297 : en:01:38:48.297

General
king.of.jazz.1930.720p.bluray.x264-dev0.mkv
Format : Matroska
Format version : Version 4 / Version 2
File size : 5.47 GiB
Duration : 1 h 40 min
Overall bit rate mode : Variable
Overall bit rate : 7 797 kb/s
Encoded date : UTC 2018-06-14 03:45:26
Writing application : mkvmerge v8.3.0 ('Over the Horizon') 64bit
Writing library : libebml v1.3.1 + libmatroska v1.4.2

Video
ID : 1
Format : AVC
Format/Info : Advanced Video Codec
Format profile : High@L4.1
Format settings, CABAC : Yes
Format settings, RefFrames : 5 frames
Codec ID : V_MPEG4/ISO/AVC
Duration : 1 h 40 min
Bit rate : 7 225 kb/s
Width : 976 pixels
Height : 720 pixels
Display aspect ratio : 4:3
Frame rate mode : Constant
Frame rate : 23.976 (24000/1001) FPS
Color space : YUV
Chroma subsampling : 4:2:0
Bit depth : 8 bits
Scan type : Progressive
Bits/(Pixel*Frame) : 0.429
Stream size : 5.07 GiB (93%)
Writing library : x264 core 155 r2901 7d0ff22
Encoding settings : cabac=1 / ref=5 / deblock=1:-3:-3 / analyse=0x3:0x133 / me=umh / subme=9 / psy=1 / psy_rd=1.00:0.00 / mixed_ref=1 / me_range=16 / chroma_me=1 / trellis=2 / 8x8dct=1 / cqm=0 / deadzone=21,11 / fast_pskip=0 / chroma_qp_offset=-2 / threads=22 / lookahead_threads=1 / sliced_threads=0 / nr=0 / decimate=1 / interlaced=0 / bluray_compat=0 / constrained_intra=0 / bframes=3 / b_pyramid=2 / b_adapt=1 / b_bias=0 / direct=3 / weightb=1 / open_gop=0 / weightp=2 / keyint=240 / keyint_min=24 / scenecut=40 / intra_refresh=0 / rc_lookahead=50 / rc=2pass / mbtree=1 / bitrate=7225 / ratetol=1.0 / qcomp=0.60 / qpmin=0 / qpmax=69 / qpstep=4 / cplxblur=20.0 / qblur=0.5 / ip_ratio=1.40 / aq=1:1.00
Language : English
Default : Yes
Forced : No

Audio
ID : 2
Format : FLAC
Format/Info : Free Lossless Audio Codec
Codec ID : A_FLAC
Duration : 1 h 40 min
Bit rate mode : Variable
Bit rate : 569 kb/s
Channel(s) : 1 channel
Channel positions : Front: C
Sampling rate : 48.0 kHz
Frame rate : 11.719 FPS (4096 SPF)
Bit depth : 24 bits
Stream size : 409 MiB (7%)
Writing library : libFLAC 1.2.1 (UTC 2007-09-17)
Language : English
Default : Yes
Forced : No

Menu
00:00:00.000 : en:00:00:00.000
00:02:41.745 : en:00:02:41.745
00:05:21.029 : en:00:05:21.029
00:10:34.801 : en:00:10:34.801
00:12:35.880 : en:00:12:35.880
00:20:46.912 : en:00:20:46.912
00:25:28.902 : en:00:25:28.902
00:26:20.746 : en:00:26:20.746
00:29:06.828 : en:00:29:06.828
00:35:16.489 : en:00:35:16.489
00:35:59.157 : en:00:35:59.157
00:40:00.023 : en:00:40:00.023
00:46:30.871 : en:00:46:30.871
00:46:51.058 : en:00:46:51.058
00:48:33.702 : en:00:48:33.702
00:51:38.512 : en:00:51:38.512
01:01:24.848 : en:01:01:24.848
01:05:09.739 : en:01:05:09.739
01:10:21.217 : en:01:10:21.217
01:11:37.293 : en:01:11:37.293
01:17:54.503 : en:01:17:54.503
01:21:21.085 : en:01:21:21.085
01:24:57.718 : en:01:24:57.718
01:38:48.297 : en:01:38:48.297

General
king.of.jazz.1930.1080p.bluray.x264-dev0.mkv
Format : Matroska
Format version : Version 4 / Version 2
File size : 9.84 GiB
Duration : 1 h 40 min
Overall bit rate mode : Variable
Overall bit rate : 14.0 Mb/s
Encoded date : UTC 2018-06-14 07:48:28
Writing application : mkvmerge v8.3.0 ('Over the Horizon') 64bit
Writing library : libebml v1.3.1 + libmatroska v1.4.2

Video
ID : 1
Format : AVC
Format/Info : Advanced Video Codec
Format profile : High@L4.1
Format settings, CABAC : Yes
Format settings, RefFrames : 4 frames
Codec ID : V_MPEG4/ISO/AVC
Duration : 1 h 40 min
Bit rate : 13.5 Mb/s
Width : 1 456 pixels
Height : 1 080 pixels
Display aspect ratio : 4:3
Frame rate mode : Constant
Frame rate : 23.976 (24000/1001) FPS
Color space : YUV
Chroma subsampling : 4:2:0
Bit depth : 8 bits
Scan type : Progressive
Bits/(Pixel*Frame) : 0.357
Stream size : 9.44 GiB (96%)
Writing library : x264 core 155 r2901 7d0ff22
Encoding settings : cabac=1 / ref=4 / deblock=1:-3:-3 / analyse=0x3:0x133 / me=umh / subme=9 / psy=1 / psy_rd=1.00:0.00 / mixed_ref=1 / me_range=16 / chroma_me=1 / trellis=2 / 8x8dct=1 / cqm=0 / deadzone=21,11 / fast_pskip=0 / chroma_qp_offset=-2 / threads=24 / lookahead_threads=2 / sliced_threads=0 / nr=0 / decimate=1 / interlaced=0 / bluray_compat=0 / constrained_intra=0 / bframes=3 / b_pyramid=2 / b_adapt=1 / b_bias=0 / direct=3 / weightb=1 / open_gop=0 / weightp=2 / keyint=240 / keyint_min=24 / scenecut=40 / intra_refresh=0 / rc_lookahead=50 / rc=2pass / mbtree=1 / bitrate=13458 / ratetol=1.0 / qcomp=0.60 / qpmin=0 / qpmax=69 / qpstep=4 / cplxblur=20.0 / qblur=0.5 / ip_ratio=1.40 / aq=1:1.00
Language : English
Default : Yes
Forced : No

Audio
ID : 2
Format : FLAC
Format/Info : Free Lossless Audio Codec
Codec ID : A_FLAC
Duration : 1 h 40 min
Bit rate mode : Variable
Bit rate : 569 kb/s
Channel(s) : 1 channel
Channel positions : Front: C
Sampling rate : 48.0 kHz
Frame rate : 11.719 FPS (4096 SPF)
Bit depth : 24 bits
Stream size : 409 MiB (4%)
Writing library : libFLAC 1.2.1 (UTC 2007-09-17)
Language : English
Default : Yes
Forced : No

Menu
00:00:00.000 : en:00:00:00.000
00:02:41.745 : en:00:02:41.745
00:05:21.029 : en:00:05:21.029
00:10:34.801 : en:00:10:34.801
00:12:35.880 : en:00:12:35.880
00:20:46.912 : en:00:20:46.912
00:25:28.902 : en:00:25:28.902
00:26:20.746 : en:00:26:20.746
00:29:06.828 : en:00:29:06.828
00:35:16.489 : en:00:35:16.489
00:35:59.157 : en:00:35:59.157
00:40:00.023 : en:00:40:00.023
00:46:30.871 : en:00:46:30.871
00:46:51.058 : en:00:46:51.058
00:48:33.702 : en:00:48:33.702
00:51:38.512 : en:00:51:38.512
01:01:24.848 : en:01:01:24.848
01:05:09.739 : en:01:05:09.739
01:10:21.217 : en:01:10:21.217
01:11:37.293 : en:01:11:37.293
01:17:54.503 : en:01:17:54.503
01:21:21.085 : en:01:21:21.085
01:24:57.718 : en:01:24:57.718
01:38:48.297 : en:01:38:48.297


BDRip Screenshots

King of Jazz (1930)

King of Jazz (1930)

King of Jazz (1930)


BDRip 720p Screenshots

King of Jazz (1930)

King of Jazz (1930)

King of Jazz (1930)


BDRip 1080p Screenshots

King of Jazz (1930)

King of Jazz (1930)

King of Jazz (1930)


Come Visit My Blog (•‿•)