King of Jazz (1930) [Criterion Collection]

Posted By: RSU75
1080p (FullHD) / BDRip IMDb
King of Jazz (1930) [Criterion Collection]

King of Jazz (1930) [Criterion Collection, Spine #915 + Extras]
BDRip | MKV | AVC 1460x1080, ~ 3.9 Mbps | 1hr 40mn | 3.02 GB + 560 MB + 617 MB
English: AC3, 1 ch, 256 kbps, English(Commentary): AC3, 1 ch, 192 kbps
Subtitles: English
Genre: Animation, Comedy, Music
IMDB Rating: 7.4/10 (536 votes)
Criterion.com


Director: John Murray Anderson
Writers: Harry Ruskin (comedy sketches)
Stars: Paul Whiteman, John Boles, Laura La Plante

Made during the early years of the movie musical, this exuberant revue was one of the most extravagant, eclectic, and technically ambitious Hollywood productions of its day. Starring the bandleader Paul Whiteman, then widely celebrated as the King of Jazz, the film drew from Broadway variety shows to present a spectacular array of sketches, performances by such acts as the Rhythm Boys (featuring a young Bing Crosby), and orchestral numbers—all lavishly staged by veteran theater director John Murray Anderson. Presented here in the most complete form possible and restored to its original early-Technicolor glory, King of Jazz offers a fascinating snapshot of the way mainstream American popular culture viewed itself at the dawn of the 1930s.

Extras:
- All Americans, a 1929 short film featuring a version of the “Melting Pot” number that was restaged for King of Jazz (19 min)
- I Know Everybody and Everybody’s Racket, a 1933 short film featuring Paul Whiteman and His Orchestra (21 min)




General
Unique ID : 231485205943165162629511839619290025095 (0xAE266DD1B0871F24825E4587C8B4CC87)
Complete name : M:\KingOfJazz.30.Cr.1p\KingOfJazz.30.Cr.1p.mkv
Format : Matroska
Format version : Version 4 / Version 2
File size : 3.02 GiB
Duration : 1 h 40 min
Overall bit rate : 4 311 kb/s
Movie name : Release RSU75
Encoded date : UTC 2018-04-15 13:19:49
Writing application : mkvmerge v6.6.0 ('The Edge Of The In Between') built on Dec 1 2013 17:55:00
Writing library : libebml v1.3.0 + libmatroska v1.4.1
Cover : Yes
Attachments : cover.jpg

Video
ID : 1
Format : AVC
Format/Info : Advanced Video Codec
Format profile : High@L4
Format settings : CABAC / 4 Ref Frames
Format settings, CABAC : Yes
Format settings, RefFrames : 4 frames
Codec ID : V_MPEG4/ISO/AVC
Duration : 1 h 40 min
Bit rate : 3 900 kb/s
Width : 1 460 pixels
Height : 1 080 pixels
Display aspect ratio : 4:3
Frame rate mode : Constant
Frame rate : 23.976 (23976/1000) FPS
Color space : YUV
Chroma subsampling : 4:2:0
Bit depth : 8 bits
Scan type : Progressive
Bits/(Pixel*Frame) : 0.103
Stream size : 2.65 GiB (88%)
Writing library : x264 core 144 r2533 c8a773e
Encoding settings : cabac=1 / ref=4 / deblock=1:0:0 / analyse=0x3:0x113 / me=umh / subme=8 / psy=1 / psy_rd=1.00:0.00 / mixed_ref=1 / me_range=24 / chroma_me=1 / trellis=1 / 8x8dct=1 / cqm=0 / deadzone=21,11 / fast_pskip=1 / chroma_qp_offset=-2 / threads=3 / lookahead_threads=1 / sliced_threads=0 / nr=0 / decimate=1 / interlaced=0 / bluray_compat=0 / constrained_intra=0 / bframes=3 / b_pyramid=0 / b_adapt=2 / b_bias=0 / direct=3 / weightb=1 / open_gop=0 / weightp=2 / keyint=250 / keyint_min=25 / scenecut=40 / intra_refresh=0 / rc_lookahead=40 / rc=abr / mbtree=1 / bitrate=3900 / ratetol=1.0 / qcomp=0.60 / qpmin=10 / qpmax=51 / qpstep=4 / ip_ratio=1.41 / aq=1:1.00
Language : English
Default : No
Forced : No

Audio #1
ID : 2
Format : AC-3
Format/Info : Audio Coding 3
Format settings, Endianness : Big
Codec ID : A_AC3
Duration : 1 h 40 min
Bit rate mode : Constant
Bit rate : 256 kb/s
Channel(s) : 1 channel
Channel positions : Front: C
Sampling rate : 48.0 kHz
Frame rate : 31.250 FPS (1536 SPF)
Bit depth : 16 bits
Compression mode : Lossy
Delay relative to video : -5 ms
Stream size : 184 MiB (6%)
Language : English
Service kind : Complete Main
Default : Yes
Forced : No

Audio #2
ID : 3
Format : AC-3
Format/Info : Audio Coding 3
Format settings, Endianness : Big
Codec ID : A_AC3
Duration : 1 h 40 min
Bit rate mode : Constant
Bit rate : 192 kb/s
Channel(s) : 1 channel
Channel positions : Front: C
Sampling rate : 48.0 kHz
Frame rate : 31.250 FPS (1536 SPF)
Bit depth : 16 bits
Compression mode : Lossy
Delay relative to video : -42 ms
Stream size : 138 MiB (4%)
Title : Commentary
Language : English
Service kind : Complete Main
Default : No
Forced : No

Text
ID : 4
Format : PGS
Muxing mode : zlib
Codec ID : S_HDMV/PGS
Codec ID/Info : Picture based subtitle format used on BDs/HD-DVDs
Language : English
Default : No
Forced : No

Menu
00:00:00.000 : en:Chapter 01
00:02:41.661 : en:Chapter 02
00:05:20.820 : en:Chapter 03
00:10:35.134 : en:Chapter 04
00:12:35.671 : en:Chapter 05
00:20:46.662 : en:Chapter 06
00:25:29.402 : en:Chapter 07
00:26:20.620 : en:Chapter 08
00:29:06.703 : en:Chapter 09
00:35:16.656 : en:Chapter 10
00:35:59.115 : en:Chapter 11
00:39:59.980 : en:Chapter 12
00:46:30.871 : en:Chapter 13
00:46:50.808 : en:Chapter 14
00:48:33.452 : en:Chapter 15
00:51:39.054 : en:Chapter 16
01:01:24.597 : en:Chapter 17
01:05:09.530 : en:Chapter 18
01:10:21.508 : en:Chapter 19
01:11:37.251 : en:Chapter 20
01:17:54.836 : en:Chapter 21
01:21:21.042 : en:Chapter 22
01:24:57.550 : en:Chapter 23
01:38:48.339 : en:Chapter 24




Screenshots (click to enlarge to original size):

King of Jazz (1930) [Criterion Collection]

King of Jazz (1930) [Criterion Collection]

King of Jazz (1930) [Criterion Collection]


King of Jazz (1930) [Criterion Collection]




–––––––––––––––––––––––––––––––––––––––-
>>> "Criterion Collection" <<< OR >>> "BDRip" <<< OR >>> "Music" <<<
–––––––––––––––––––––––––––––––––––––––-
>>> Visit Blog RSU75 Here <<<
–––––––––––––––––––––––––––––––––––––––-