L'Art du Crime S01E01

Posted By: Tavaz
1080p (FullHD) / WEBRip IMDb
L'Art du Crime S01E01

L'Art du Crime S01E01
H264 | MKV | 1916x1076 | French | H264 @ 10563 kbps | MPEG Audio @ 320 kbps | 50 min 15 s | 3.82 GiB
Genre: Crime, Mystery

Antoine Verlay, ancien policier de la Police judiciaire, et Florence Chassagne, historienne de l'art, mènent conjointement des enquêtes au sein de l'Office central de lutte contre le trafic des biens culturels (OCBC)



rtx-adc101_1080p-sample.mkv (81.4 MB)
rtx-adc101_1080p.mkv (3.8 GB)



General
Unique ID : 82013014925314877034330417599129962142 (0x3DB321D31A2A8FACDACCC0C16F15C69E)
Complete name : ./rtx-adc101_1080p.mkv
Format : Matroska
Format version : Version 4 / Version 2
File size : 3.82 GiB
Duration : 50 min 15 s
Overall bit rate : 10.9 Mb/s
Encoded date : UTC 2017-11-17 23:09:06
Writing application : mkvmerge v14.0.0 ('Flow') 64bit
Writing library : libebml v1.3.4 + libmatroska v1.4.5

Video
ID : 1
Format : AVC
Format/Info : Advanced Video Codec
Format profile : High@L4.1
Format settings : CABAC / 4 Ref Frames
Format settings, CABAC : Yes
Format settings, RefFrames : 4 frames
Codec ID : V_MPEG4/ISO/AVC
Duration : 50 min 15 s
Bit rate : 10.6 Mb/s
Width : 1 916 pixels
Height : 1 076 pixels
Display aspect ratio : 16:9
Frame rate mode : Constant
Frame rate : 25.000 FPS
Color space : YUV
Chroma subsampling : 4:2:0
Bit depth : 8 bits
Scan type : Progressive
Bits/(Pixel*Frame) : 0.205
Stream size : 3.71 GiB (97%)
Writing library : x264 core 152 r2851 ba24899
Encoding settings : cabac=1 / ref=4 / deblock=1:0:0 / analyse=0x3:0x133 / me=umh / subme=9 / psy=1 / psy_rd=1.00:0.00 / mixed_ref=1 / me_range=24 / chroma_me=1 / trellis=2 / 8x8dct=1 / cqm=0 / deadzone=21,11 / fast_pskip=0 / chroma_qp_offset=-4 / threads=16 / lookahead_threads=2 / sliced_threads=0 / nr=0 / decimate=1 / interlaced=0 / bluray_compat=0 / constrained_intra=0 / bframes=3 / b_pyramid=2 / b_adapt=2 / b_bias=0 / direct=3 / weightb=1 / open_gop=0 / weightp=2 / keyint=250 / keyint_min=25 / scenecut=40 / intra_refresh=0 / rc_lookahead=60 / rc=crf / mbtree=1 / crf=17.0 / qcomp=0.60 / qpmin=0 / qpmax=69 / qpstep=4 / ip_ratio=1.40 / aq=1:1.00
Default : Yes
Forced : No
Color range : Limited
Color primaries : BT.709
Transfer characteristics : BT.709
Matrix coefficients : BT.709

Audio
ID : 2
Format : MPEG Audio
Format version : Version 1
Format profile : Layer 2
Codec ID : A_MPEG/L2
Codec ID/Hint : MP2
Duration : 50 min 15 s
Bit rate mode : Constant
Bit rate : 320 kb/s
Channel(s) : 2 channels
Sampling rate : 48.0 kHz
Frame rate : 41.667 FPS (1152 SPF)
Compression mode : Lossy
Stream size : 115 MiB (3%)
Language : French
Default : Yes
Forced : No





L'Art du Crime S01E01


L'Art du Crime S01E01


L'Art du Crime S01E01


L'Art du Crime S01E01


L'Art du Crime S01E01

All episodes