Tags
Language
Tags

La La Land (2016)

Posted By: Tavaz
1080p (FullHD) / BDRip IMDb
La La Land (2016)

La La Land (2016)
BDRip | MKV | 1920x752 | English | H265 @ 1934 kbps | AC-3 @ 256 kbps | 2 h 7 min | 1.99 GiB
Subtitles: Français, English
Genre: Comedy, Drama, Romance, Music

Mia, an aspiring actress, serves lattes to movie stars in between auditions and Sebastian, a jazz musician, scrapes by playing cocktail party gigs in dingy bars, but as success mounts they are faced with decisions that begin to fray the fragile fabric of their love affair, and the dreams they worked so hard to maintain in each other threaten to rip them apart.

60aa8fec8ece48e2919f5ae518c8b38a.mkv (2.0 GB)



General
Unique ID : 272053014159355930504215240240508962799 (0xCCAB813049218CCBA9195A9BE60807EF)
Complete name : ./60aa8fec8ece48e2919f5ae518c8b38a.mkv
Format : Matroska
Format version : Version 4 / Version 2
File size : 1.99 GiB
Duration : 2 h 7 min
Overall bit rate : 2 235 kb/s
Writing application : mkvmerge v40.0.0 ('Old Town Road + Pony') 64-bit
Writing library : libebml v1.3.9 + libmatroska v1.5.2

Video
ID : 1
Format : HEVC
Format/Info : High Efficiency Video Coding
Format profile : Main@L4@Main
Codec ID : V_MPEGH/ISO/HEVC
Duration : 2 h 7 min
Bit rate : 1 934 kb/s
Width : 1 920 pixels
Height : 752 pixels
Display aspect ratio : 2.553
Frame rate mode : Constant
Frame rate : 23.976 (24000/1001) FPS
Color space : YUV
Chroma subsampling : 4:2:0
Bit depth : 8 bits
Bits/(Pixel*Frame) : 0.056
Stream size : 1.73 GiB (87%)
Language : English
Default : Yes
Forced : No
Color range : Limited
Color primaries : BT.709
Transfer characteristics : BT.709
Matrix coefficients : BT.709

Audio
ID : 2
Format : AC-3
Format/Info : Audio Coding 3
Format settings, Endianness : Big
Codec ID : A_AC3
Duration : 2 h 7 min
Bit rate mode : Constant
Bit rate : 256 kb/s
Channel(s) : 6 channels
Channel positions : Front: L C R, Side: L R, LFE
Sampling rate : 48.0 kHz
Frame rate : 31.250 FPS (1536 SPF)
Bit depth : 16 bits
Compression mode : Lossy
Delay relative to video : -5 ms
Stream size : 234 MiB (11%)
Language : English
Service kind : Complete Main
Default : Yes
Forced : No

Text #1
ID : 3
Format : UTF-8
Codec ID : S_TEXT/UTF8
Codec ID/Info : UTF-8 Plain Text
Language : English
Default : No
Forced : No

Text #2
ID : 4
Format : UTF-8
Codec ID : S_TEXT/UTF8
Codec ID/Info : UTF-8 Plain Text
Title : SDH
Language : English
Default : No
Forced : No

Text #3
ID : 5
Format : UTF-8
Codec ID : S_TEXT/UTF8
Codec ID/Info : UTF-8 Plain Text
Language : French
Default : No
Forced : No

Menu
00:00:00.000 : en:Chapter 01
00:07:06.926 : en:Chapter 02
00:17:30.883 : en:Chapter 03
00:26:05.856 : en:Chapter 04
00:31:14.039 : en:Chapter 05
00:39:29.075 : en:Chapter 06
00:46:17.566 : en:Chapter 07
00:52:11.170 : en:Chapter 08
00:58:50.360 : en:Chapter 09
01:05:58.580 : en:Chapter 10
01:13:01.293 : en:Chapter 11
01:24:16.301 : en:Chapter 12
01:31:50.880 : en:Chapter 13
01:41:10.981 : en:Chapter 14
01:46:07.611 : en:Chapter 15
01:56:19.598 : en:Chapter 16





La La Land (2016)


La La Land (2016)


La La Land (2016)


La La Land (2016)


La La Land (2016)