Tags
Language
Tags

La La Land (2016)

Posted By: Tavaz
1080p (FullHD) / BDRip IMDb
La La Land (2016)

La La Land (2016)
BDRip | MKV | 1920x1080 | English | H264 @ 5760 kbps | AC-3 @ 448 kbps | 2 h 7 min | 5.53 GiB
Subtitles: English
Genre: Comedy, Drama, Music, Romance

Mia, an aspiring actress, serves lattes to movie stars in between auditions and Sebastian, a jazz musician, scrapes by playing cocktail party gigs in dingy bars, but as success mounts they are faced with decisions that begin to fray the fragile fabric of their love affair, and the dreams they worked so hard to maintain in each other threaten to rip them apart.

063a2b53474d4913b0fb439e61b5ed6d.mkv (5.5 GB)



General
Complete name : ./063a2b53474d4913b0fb439e61b5ed6d.mkv
Format : Matroska
Format version : Version 4 / Version 2
File size : 5.53 GiB
Duration : 2 h 7 min
Overall bit rate : 6 199 kb/s
Encoded date : UTC 2018-11-04 22:06:39 / UTC 2018-11-03T18:42:21Z
Writing application : mkvmerge v28.0.0 ('Voice In My Head') 64-bit
Writing library : libebml v1.3.6 + libmatroska v1.4.9 / Lavf57.7.2

Video
ID : 1
Format : AVC
Format/Info : Advanced Video Codec
Format profile : Main@L4
Format settings : CABAC / 4 Ref Frames
Format settings, CABAC : Yes
Format settings, RefFrames : 4 frames
Codec ID : V_MPEG4/ISO/AVC
Duration : 2 h 7 min
Bit rate : 5 760 kb/s
Width : 1 920 pixels
Height : 1 080 pixels
Display aspect ratio : 16:9
Frame rate mode : Constant
Frame rate : 23.976 (24000/1001) FPS
Color space : YUV
Chroma subsampling : 4:2:0
Bit depth : 8 bits
Scan type : Progressive
Bits/(Pixel*Frame) : 0.116
Stream size : 5.02 GiB (91%)
Writing library : x264 core 155 r2901 7d0ff22
Encoding settings : cabac=1 / ref=4 / deblock=1:1:1 / analyse=0x1:0 / me=umh / subme=9 / psy=1 / psy_rd=1.10:0.00 / mixed_ref=1 / me_range=32 / chroma_me=1 / trellis=2 / 8x8dct=0 / cqm=0 / deadzone=21,11 / fast_pskip=1 / chroma_qp_offset=-6 / threads=12 / lookahead_threads=1 / sliced_threads=0 / nr=0 / decimate=1 / interlaced=0 / bluray_compat=0 / constrained_intra=0 / bframes=4 / b_pyramid=2 / b_adapt=2 / b_bias=0 / direct=3 / weightb=1 / open_gop=0 / weightp=2 / keyint=240 / keyint_min=24 / scenecut=40 / intra_refresh=0 / rc_lookahead=40 / rc=2pass / mbtree=1 / bitrate=5760 / ratetol=1.0 / qcomp=0.60 / qpmin=0 / qpmax=69 / qpstep=4 / cplxblur=20.0 / qblur=0.5 / vbv_maxrate=20000 / vbv_bufsize=25000 / nal_hrd=none / filler=0 / ip_ratio=1.40 / aq=1:1.00
Default : Yes
Forced : No
Color range : Limited
Color primaries : BT.709
Transfer characteristics : BT.709
Matrix coefficients : BT.709
Statistics Tags Issue : mkvmerge v28.0.0 ('Voice In My Head') 64-bit 2018-11-04 22:06:39 / mkvmerge v28.0.0 ('Voice In My Head') 64-bit 2018-11-04 22:06:39 / UTC 2018-11-03T18:42:21Z
FromStats_BitRate : 5748693
FromStats_Duration : 02:07:48.119000000
FromStats_FrameCount : 183851
FromStats_StreamSize : 5510208404

Audio
ID : 2
Format : AC-3
Format/Info : Audio Coding 3
Format settings, Endianness : Big
Codec ID : A_AC3
Duration : 2 h 7 min
Bit rate mode : Constant
Bit rate : 448 kb/s
Channel(s) : 6 channels
Channel positions : Front: L C R, Side: L R, LFE
Sampling rate : 48.0 kHz
Frame rate : 31.250 FPS (1536 SPF)
Bit depth : 16 bits
Compression mode : Lossy
Stream size : 410 MiB (7%)
Title : Surround
Language : English
Service kind : Complete Main
Default : Yes
Forced : No
Statistics Tags Issue : mkvmerge v28.0.0 ('Voice In My Head') 64-bit 2018-11-04 22:06:39 / mkvmerge v28.0.0 ('Voice In My Head') 64-bit 2018-11-04 22:06:39 / UTC 2018-11-03T18:42:21Z
FromStats_BitRate : 448000
FromStats_Duration : 02:07:48.128000000
FromStats_FrameCount : 239629
FromStats_StreamSize : 429415168

Text
ID : 3
Format : UTF-8
Codec ID : S_TEXT/UTF8
Codec ID/Info : UTF-8 Plain Text
Language : English
Default : Yes
Forced : No
Statistics Tags Issue : mkvmerge v28.0.0 ('Voice In My Head') 64-bit 2018-11-04 22:06:39 / mkvmerge v28.0.0 ('Voice In My Head') 64-bit 2018-11-04 22:06:39 / UTC 2018-11-03T18:42:21Z
FromStats_BitRate : 55
FromStats_Duration : 01:59:57.557000000
FromStats_FrameCount : 1359
FromStats_StreamSize : 50110

Menu
00:00:00.000 : :00:00:00.000
00:07:06.927 : :00:07:06.926
00:17:30.883 : :00:17:30.883
00:26:05.856 : :00:26:05.856
00:31:14.039 : :00:31:14.039
00:39:29.075 : :00:39:29.075
00:46:17.566 : :00:46:17.566
00:52:11.170 : :00:52:11.170
00:58:50.360 : :00:58:50.360
01:05:58.580 : :01:05:58.580
01:13:01.294 : :01:13:01.293
01:24:16.301 : :01:24:16.301
01:31:50.880 : :01:31:50.880
01:41:10.982 : :01:41:10.981
01:46:07.611 : :01:46:07.611
01:56:19.598 : :01:56:19.598





La La Land (2016)


La La Land (2016)


La La Land (2016)


La La Land (2016)


La La Land (2016)