Tags
Language
Tags

La La Land (2016)

Posted By: Tavaz
720p (HD) / BDRip IMDb
La La Land (2016)

La La Land (2016)
BDRip | MKV | 1280x502 | English | H264 @ 6000 kbps | AC-3 @ 640 kbps | 2 h 7 min | 6.01 GiB
Subtitles: English
Genre: Comedy, Drama, Romance, Music

Mia, an aspiring actress, serves lattes to movie stars in between auditions and Sebastian, a jazz musician, scrapes by playing cocktail party gigs in dingy bars, but as success mounts they are faced with decisions that begin to fray the fragile fabric of their love affair, and the dreams they worked so hard to maintain in each other threaten to rip them apart.

1b5931f28bcf5d444ad235161b313e79.mkv (6.0 GB)



General
Unique ID : 189275821234138011221933980006909038607 (0x8E65327ACDABA48AB53645085755500F)
Complete name : ./1b5931f28bcf5d444ad235161b313e79.mkv
Format : Matroska
Format version : Version 4 / Version 2
File size : 6.01 GiB
Duration : 2 h 7 min
Overall bit rate : 6 729 kb/s
Encoded date : UTC 2017-04-18 08:18:24
Writing application : mkvmerge v8.3.0 ('Over the Horizon') 32bit
Writing library : libebml v1.3.1 + libmatroska v1.4.2

Video
ID : 1
Format : AVC
Format/Info : Advanced Video Codec
Format profile : High@L4.1
Format settings : CABAC / 12 Ref Frames
Format settings, CABAC : Yes
Format settings, RefFrames : 12 frames
Codec ID : V_MPEG4/ISO/AVC
Duration : 2 h 7 min
Bit rate : 6 000 kb/s
Width : 1 280 pixels
Height : 502 pixels
Display aspect ratio : 2.550
Frame rate mode : Constant
Frame rate : 23.976 (24000/1001) FPS
Color space : YUV
Chroma subsampling : 4:2:0
Bit depth : 8 bits
Scan type : Progressive
Bits/(Pixel*Frame) : 0.389
Stream size : 5.35 GiB (89%)
Title : La La Land (2016)
Writing library : x264 core 148 r2744kMod b97ae06
Encoding settings : cabac=1 / ref=12 / deblock=1:-3:-3 / analyse=0x3:0x133 / me=umh / subme=10 / psy=1 / fade_compensate=0.00 / psy_rd=1.00:0.00 / mixed_ref=1 / me_range=64 / chroma_me=1 / trellis=2 / 8x8dct=1 / cqm=0 / deadzone=21,11 / fast_pskip=0 / chroma_qp_offset=-2 / threads=12 / lookahead_threads=2 / sliced_threads=0 / nr=0 / decimate=0 / interlaced=0 / bluray_compat=0 / constrained_intra=0 / bframes=9 / b_pyramid=2 / b_adapt=2 / b_bias=0 / direct=3 / weightb=1 / open_gop=0 / weightp=2 / keyint=250 / keyint_min=23 / scenecut=40 / intra_refresh=0 / rc_lookahead=40 / rc=2pass / mbtree=0 / bitrate=6000 / ratetol=1.0 / qcomp=0.75 / qpmin=0 / qpmax=69 / qpstep=4 / cplxblur=20.0 / qblur=0.5 / vbv_maxrate=50000 / vbv_bufsize=62500 / nal_hrd=none / filler=0 / ip_ratio=1.25 / pb_ratio=1.15 / aq=1:0.70
Language : English
Default : Yes
Forced : No
Color range : Limited
Color primaries : BT.709
Transfer characteristics : BT.709
Matrix coefficients : BT.709

Audio #1
ID : 2
Format : AC-3
Format/Info : Audio Coding 3
Format settings, Endianness : Big
Codec ID : A_AC3
Duration : 2 h 7 min
Bit rate mode : Constant
Bit rate : 640 kb/s
Channel(s) : 6 channels
Channel positions : Front: L C R, Side: L R, LFE
Sampling rate : 48.0 kHz
Frame rate : 31.250 FPS (1536 SPF)
Bit depth : 16 bits
Compression mode : Lossy
Stream size : 585 MiB (10%)
Title : AC3 5.1 @ 640 kbps
Language : English
Service kind : Complete Main
Default : Yes
Forced : No

Audio #2
ID : 3
Format : AAC
Format/Info : Advanced Audio Codec
Format profile : HE-AAC / LC
Format settings : Explicit
Codec ID : A_AAC-2
Duration : 2 h 7 min
Bit rate : 82.2 kb/s
Channel(s) : 2 channels
Channel positions : Front: L R
Sampling rate : 48.0 kHz / 24.0 kHz
Frame rate : 23.438 FPS (1024 SPF)
Compression mode : Lossy
Delay relative to video : 40 ms
Stream size : 75.1 MiB (1%)
Title : Commentary AAC 2.0 @ 82 kbps
Language : English
Default : No
Forced : No

Text #1
ID : 4
Format : UTF-8
Codec ID : S_TEXT/UTF8
Codec ID/Info : UTF-8 Plain Text
Duration : 1 h 59 min
Bit rate : 45 b/s
Count of elements : 1202
Stream size : 40.1 KiB (0%)
Title : SRT
Language : English
Default : No
Forced : No

Text #2
ID : 5
Format : PGS
Muxing mode : zlib
Codec ID : S_HDMV/PGS
Codec ID/Info : Picture based subtitle format used on BDs/HD-DVDs
Duration : 1 h 59 min
Bit rate : 11.7 kb/s
Count of elements : 2714
Stream size : 10.1 MiB (0%)
Title : SUP
Language : English
Default : No
Forced : No

Menu
00:00:00.000 : en:00:00:00.000
00:07:06.926 : en:00:07:06.926
00:17:30.883 : en:00:17:30.883
00:26:05.856 : en:00:26:05.856
00:31:14.039 : en:00:31:14.039
00:39:29.075 : en:00:39:29.075
00:46:17.566 : en:00:46:17.566
00:52:11.170 : en:00:52:11.170
00:58:50.360 : en:00:58:50.360
01:05:58.580 : en:01:05:58.580
01:13:01.293 : en:01:13:01.293
01:24:16.301 : en:01:24:16.301
01:31:50.880 : en:01:31:50.880
01:41:10.981 : en:01:41:10.981
01:46:07.611 : en:01:46:07.611
01:56:19.598 : en:01:56:19.598





La La Land (2016)


La La Land (2016)


La La Land (2016)


La La Land (2016)


La La Land (2016)