La battaglia dei sessi (2017)

Posted By: JohnSmith
SD / WEB-DL IMDb
La battaglia dei sessi (2017)

La battaglia dei sessi / Battle of the Sexes (2017)
HDRip MD | AVI / XviD@1064 kb/s | 720x304 | 2h 2mn | 1.02 GB | Italian (dubbed): MP3, 128 kb/s (2 ch)
Genre: Biography | Comedy | Drama | Sport

Nel 1973 il match di tennis tra la numero uno al mondo Billie Jean King e l'ex campione Bobby Riggs viene annunciato come la battaglia dei sessi. La partita cattura lo spirito del tempo e scatena ampie discussioni sulla parità del genere, stimolando il movimento femminista. Mentre i media si interessano ai due sportivi, questi combattono battaglie personali complesse.

IMDB - Nominated for 2 Golden Globes. Another 1 win & 9 nominations.



General
Complete name : A:\La.Battaglia.Dei.Sessi.2017.iTALiAN.MD.WEBDL.XviD-iSTANCE.avi
Format : AVI
Format/Info : Audio Video Interleave
File size : 1.02 GiB
Duration : 2 h 2 min
Overall bit rate : 1 201 kb/s
Writing application : Lavf57.83.100
Writing library : VirtualDub build 35491/release

Video
ID : 0
Format : MPEG-4 Visual
Format profile : Advanced Simple@L5
Format settings, BVOP : 2
Format settings, QPel : No
Format settings, GMC : No warppoints
Format settings, Matrix : Default (MPEG)
Codec ID : XVID
Codec ID/Hint : XviD
Duration : 2 h 2 min
Bit rate : 1 064 kb/s
Width : 720 pixels
Height : 304 pixels
Display aspect ratio : 2.35:1
Frame rate : 23.976 (24000/1001) FPS
Color space : YUV
Chroma subsampling : 4:2:0
Bit depth : 8 bits
Scan type : Progressive
Compression mode : Lossy
Bits/(Pixel*Frame) : 0.203
Stream size : 929 MiB (89%)
Writing library : XviD 67

Audio
ID : 1
Format : MPEG Audio
Format version : Version 1
Format profile : Layer 3
Mode : Joint stereo
Mode extension : MS Stereo
Codec ID : 55
Codec ID/Hint : MP3
Duration : 2 h 2 min
Bit rate mode : Constant
Bit rate : 128 kb/s
Channel(s) : 2 channels
Sampling rate : 48.0 kHz
Compression mode : Lossy
Stream size : 112 MiB (11%)
Alignment : Split accross interleaves
Interleave, duration : 42 ms (1.00 video frame)
Interleave, preload duratio : 500 ms
Writing library : LAME3.99r
Encoding settings : -m j -V 4 -q 3 -lowpass 17 -b 128




Screenshots

La battaglia dei sessi (2017)

La battaglia dei sessi (2017)

La battaglia dei sessi (2017)