La battaglia dei sessi (2017)

Posted By: JohnSmith
SD / BDRip IMDb
La battaglia dei sessi (2017)

La battaglia dei sessi / Battle of the Sexes (2017)
BDRip MD | MKV / AVC@1270 kb/s | 720x304 | 2h 2mn | 1.19 GB
Italian (dubbed): MP3, 128 kb/s (2 ch) | Subtitles: Italian (forced)
Genre: Biography | Comedy | Drama | Sport

Nel 1973 il match di tennis tra la numero uno al mondo Billie Jean King e l'ex campione Bobby Riggs viene annunciato come la battaglia dei sessi. La partita cattura lo spirito del tempo e scatena ampie discussioni sulla parità del genere, stimolando il movimento femminista. Mentre i media si interessano ai due sportivi, questi combattono battaglie personali complesse.

IMDB - Nominated for 2 Golden Globes. Another 1 win & 9 nominations.



General
Unique ID : 246340611883819099420179430819753291949 (0xB95379E1557921A19B76F0B20416F0AD)
Complete name : G:\La.Battaglia.Dei.Sessi.2017.iTALiAN.MD.BDRip.mkv
Format : Matroska
Format version : Version 4 / Version 2
File size : 1.19 GiB
Duration : 2 h 2 min
Overall bit rate : 1 393 kb/s
Movie name : Battle of the Sexes 2017 720p BluRay x264 DTS-HDChina
Encoded date : UTC 2017-12-21 19:31:05
Writing application : mkvmerge v8.3.0 ('Over the Horizon') 64bit
Writing library : libebml v1.3.1 + libmatroska v1.4.2

Video
ID : 1
Format : AVC
Format/Info : Advanced Video Codec
Format profile : Baseline@L3.1
Format settings, CABAC : No
Format settings, ReFrames : 1 frame
Codec ID : V_MPEG4/ISO/AVC
Duration : 2 h 1 min
Bit rate : 1 268 kb/s
Width : 720 pixels
Height : 304 pixels
Display aspect ratio : 2.35:1
Frame rate mode : Constant
Frame rate : 23.976 (24000/1001) FPS
Color space : YUV
Chroma subsampling : 4:2:0
Bit depth : 8 bits
Scan type : Progressive
Bits/(Pixel*Frame) : 0.242
Stream size : 1.08 GiB (91%)
Writing library : x264 core 148 r2708 86b7198
Encoding settings : cabac=0 / ref=1 / deblock=1:0:0 / analyse=0x1:0x111 / me=hex / subme=2 / psy=1 / psy_rd=1.00:0.00 / mixed_ref=0 / me_range=16 / chroma_me=1 / trellis=0 / 8x8dct=0 / cqm=0 / deadzone=21,11 / fast_pskip=1 / chroma_qp_offset=0 / threads=9 / lookahead_threads=2 / sliced_threads=0 / nr=0 / decimate=1 / interlaced=0 / bluray_compat=0 / constrained_intra=0 / bframes=0 / weightp=0 / keyint=240 / keyint_min=24 / scenecut=40 / intra_refresh=0 / rc_lookahead=10 / rc=2pass / mbtree=1 / bitrate=1268 / ratetol=1.0 / qcomp=0.60 / qpmin=0 / qpmax=69 / qpstep=4 / cplxblur=20.0 / qblur=0.5 / vbv_maxrate=14000 / vbv_bufsize=14000 / nal_hrd=none / filler=0 / ip_ratio=1.40 / aq=1:1.00
Default : Yes
Forced : No
Color range : Limited
Color primaries : BT.709
Transfer characteristics : BT.709
Matrix coefficients : BT.709

Audio
ID : 2
Format : MPEG Audio
Format version : Version 1
Format profile : Layer 3
Mode : Joint stereo
Mode extension : MS Stereo
Codec ID : A_MPEG/L3
Codec ID/Hint : MP3
Duration : 2 h 2 min
Bit rate mode : Constant
Bit rate : 128 kb/s
Channel(s) : 2 channels
Sampling rate : 48.0 kHz
Frame rate : 41.667 FPS (1152 spf)
Compression mode : Lossy
Delay relative to video : 11 ms
Stream size : 112 MiB (9%)
Language : Italian
Default : Yes
Forced : No

Text
ID : 3
Format : UTF-8
Codec ID : S_TEXT/UTF8
Codec ID/Info : UTF-8 Plain Text
Duration : 1 h 54 min
Bit rate : 0 b/s
Count of elements : 8
Stream size : 549 Bytes (0%)
Title : Forced
Language : Italian
Default : Yes
Forced : Yes




Screenshots

La battaglia dei sessi (2017)

La battaglia dei sessi (2017)

La battaglia dei sessi (2017)