La battaglia di Hacksaw Ridge (2016)

Posted By: JohnSmith
La battaglia di Hacksaw Ridge (2016)

La battaglia di Hacksaw Ridge / Hacksaw Ridge (2016)
HDRip MD | AVI / XviD@1640 kb/s | 720x304 | 2h 19mn | 1.73 GB | Italian: MP3, 128 kb/s (2 ch)
Genre: Drama | History | War

Durante la Seconda guerra mondiale ha luogo l'epica battaglia per prendere la tristemente nota fortezza giapponese di Okinawa. L'improbabile eroe che cambia le sorti della violenta e sanguinosa battaglia è Desmond T Doss, un giovane soldato e medico dell'esercito americano che si rifiuta di portare le armi. Il suo comportamento contribuirà a renderlo un eroe agli occhi dei suoi commilitoni, facendone il primo obiettore di coscienza nella storia americana a ottenere una medaglia d'oro dal Congresso.

IMDB - Top Rated Movies #112 | Nominated for 6 Oscars. Another 36 wins & 73 nominations.



General
Complete name : D:\La.Battaglia.Di.Hacksaw.Ridge.2016.iTALiAN.MD.WEBDL.XviD-FLASH.avi
Format : AVI
Format/Info : Audio Video Interleave
File size : 1.73 GiB
Duration : 2 h 19 min
Overall bit rate : 1 776 kb/s
Writing application : VirtualDubMod 1.5.10.2 (build 2542/release)
Writing library : VirtualDubMod build 2542/release

Video
ID : 0
Format : MPEG-4 Visual
Format profile : Advanced Simple@L5
Format settings, BVOP : 1
Format settings, QPel : No
Format settings, GMC : No warppoints
Format settings, Matrix : Default (H.263)
Muxing mode : Packed bitstream
Codec ID : XVID
Codec ID/Hint : XviD
Duration : 2 h 19 min
Bit rate : 1 639 kb/s
Width : 720 pixels
Height : 304 pixels
Display aspect ratio : 2.35:1
Frame rate : 23.976 (23976/1000) FPS
Color space : YUV
Chroma subsampling : 4:2:0
Bit depth : 8 bits
Scan type : Progressive
Compression mode : Lossy
Bits/(Pixel*Frame) : 0.312
Stream size : 1.59 GiB (92%)
Writing library : XviD 64

Audio
ID : 1
Format : MPEG Audio
Format version : Version 1
Format profile : Layer 3
Codec ID : 55
Codec ID/Hint : MP3
Duration : 2 h 19 min
Bit rate mode : Constant
Bit rate : 128 kb/s
Channel(s) : 2 channels
Sampling rate : 48.0 kHz
Compression mode : Lossy
Stream size : 128 MiB (7%)
Alignment : Split accross interleaves
Interleave, duration : 42 ms (1.00 video frame)
Interleave, preload duratio : 500 ms




Screenshots

La battaglia di Hacksaw Ridge (2016)

La battaglia di Hacksaw Ridge (2016)

La battaglia di Hacksaw Ridge (2016)