Tags
Language
Tags

La truffa dei Logan / Logan Lucky (2017)

Posted By: JohnSmith
720p (HD) / BDRip IMDb
La truffa dei Logan / Logan Lucky (2017)

La truffa dei Logan / Logan Lucky (2017)
BDRip | MKV / AVC@1600 kb/s | 848x352 | 1h 59mn | 1.87 GB
Italian: AC3, 640 kb/s (6 ch) | Subtitles: Italian
BDRip 720p | MKV / AVC@3180 kb/s | 1280x534 | 1h 59mn | 3.29 GB
Italian (dubbed): DTS, 768 kb/s (6 ch) | Subtitles: Italian
Genre: Comedy | Crime | Drama

Jimmy Logan, un minatore del West Virginia, convince il fratello Clyde, un veterano della guerra in Iraq, e la sorella Mellie, una parrucchiera, a prendere parte a un elaborato piano per mettere a segno una rapina ai danni del Charlotte Motor Speedway. Per riuscire nel suo intento, Jimmy cerca l'aiuto dell'esperto Joe Bang ma non tutto fila liscio come dovrebbe. A rendere il piano ancora più rischioso è il fatto che i ladri siano costretti a mettere a segno il colpo durante il Coca-Cola 600, l'evento NASCAR più popolare dell'anno. Cercando di riuscire nell'impresa, i Logan hanno un ulteriore ostacolo da superare quando su di loro inizia a indagare una inesorabile agente dell'FBI.

IMDB - 2 wins & 9 nominations.



General
Unique ID : 189357944697143189310275745986011466383 (0x8E75037AA21D3DEA82AD80440EAC0A8F)
Complete name : A:\La.Truffa.Dei.Logan.2017.iTA.Bluray.480p.x264-CYBER.mkv
Format : Matroska
Format version : Version 4 / Version 2
File size : 1.87 GiB
Duration : 1 h 59 min
Overall bit rate : 2 239 kb/s
Encoded date : UTC 2018-09-08 05:37:57
Writing application : mkvmerge v8.3.0 ('Over the Horizon') 64bit
Writing library : libebml v1.3.1 + libmatroska v1.4.2

Video
ID : 1
Format : AVC
Format/Info : Advanced Video Codec
Format profile : High@L4.1
Format settings, CABAC : Yes
Format settings, ReFrames : 5 frames
Codec ID : V_MPEG4/ISO/AVC
Duration : 1 h 58 min
Bit rate : 1 602 kb/s
Width : 848 pixels
Height : 352 pixels
Display aspect ratio : 2.40:1
Original display aspect rat : 2.40:1
Frame rate mode : Constant
Frame rate : 24.000 FPS
Original frame rate : 23.976 (24000/1001) FPS
Color space : YUV
Chroma subsampling : 4:2:0
Bit depth : 8 bits
Scan type : Progressive
Bits/(Pixel*Frame) : 0.224
Stream size : 1.33 GiB (71%)
Writing library : x264 core 155 r2901 7d0ff22
Language : English
Default : Yes
Forced : No

Audio
ID : 2
Format : AC-3
Format/Info : Audio Coding 3
Format settings, Endianness : Big
Codec ID : A_AC3
Duration : 1 h 59 min
Bit rate mode : Constant
Bit rate : 640 kb/s
Channel(s) : 6 channels
Channel positions : Front: L C R, Side: L R, LFE
Sampling rate : 48.0 kHz
Frame rate : 31.250 FPS (1536 spf)
Bit depth : 16 bits
Compression mode : Lossy
Stream size : 546 MiB (29%)
Language : Italian
Service kind : Complete Main
Default : Yes
Forced : No

Text #1
ID : 3
Format : UTF-8
Codec ID : S_TEXT/UTF8
Codec ID/Info : UTF-8 Plain Text
Duration : 1 h 46 min
Bit rate : 3 b/s
Count of elements : 92
Stream size : 2.45 KiB (0%)
Title : FORCED
Language : Italian
Default : Yes
Forced : No

Text #2
ID : 4
Format : UTF-8
Codec ID : S_TEXT/UTF8
Codec ID/Info : UTF-8 Plain Text
Duration : 1 h 53 min
Bit rate : 65 b/s
Count of elements : 1412
Stream size : 55.0 KiB (0%)
Title : REGOLARI
Language : Italian
Default : No
Forced : No

Text #3
ID : 5
Format : UTF-8
Codec ID : S_TEXT/UTF8
Codec ID/Info : UTF-8 Plain Text
Duration : 1 h 53 min
Bit rate : 66 b/s
Count of elements : 1429
Stream size : 55.1 KiB (0%)
Title : NON UDENTI
Language : Italian
Default : No
Forced : No





General
Unique ID : 254586417179117236238144073861132940994 (0xBF878F7834CED7EB873CFC5FB9B776C2)
Complete name : A:\La.Truffa.Dei.Logan.2017.iTA.Bluray.720p.x264-CYBER.mkv
Format : Matroska
Format version : Version 4 / Version 2
File size : 3.29 GiB
Duration : 1 h 59 min
Overall bit rate : 3 945 kb/s
Encoded date : UTC 2018-09-07 16:01:35
Writing application : mkvmerge v8.3.0 ('Over the Horizon') 64bit
Writing library : libebml v1.3.1 + libmatroska v1.4.2

Video
ID : 1
Format : AVC
Format/Info : Advanced Video Codec
Format profile : High@L4.1
Format settings, CABAC : Yes
Format settings, ReFrames : 5 frames
Codec ID : V_MPEG4/ISO/AVC
Duration : 1 h 58 min
Bit rate : 3 183 kb/s
Width : 1 280 pixels
Height : 534 pixels
Display aspect ratio : 2.40:1
Original display aspect rat : 2.40:1
Frame rate mode : Constant
Frame rate : 24.000 FPS
Original frame rate : 23.976 (24000/1001) FPS
Color space : YUV
Chroma subsampling : 4:2:0
Bit depth : 8 bits
Scan type : Progressive
Bits/(Pixel*Frame) : 0.194
Stream size : 2.64 GiB (80%)
Writing library : x264 core 155 r2901 7d0ff22
Language : English
Default : Yes
Forced : No

Audio
ID : 2
Format : DTS
Format/Info : Digital Theater Systems
Mode : 16
Format settings, Endianness : Big
Codec ID : A_DTS
Duration : 1 h 59 min
Bit rate mode : Constant
Bit rate : 768 kb/s
Channel(s) : 6 channels
Channel positions : Front: L C R, Side: L R, LFE
Sampling rate : 48.0 kHz
Frame rate : 93.750 FPS (512 spf)
Bit depth : 24 bits
Compression mode : Lossy
Stream size : 655 MiB (19%)
Language : Italian
Default : Yes
Forced : No

Text #1
ID : 3
Format : UTF-8
Codec ID : S_TEXT/UTF8
Codec ID/Info : UTF-8 Plain Text
Duration : 1 h 46 min
Bit rate : 3 b/s
Count of elements : 92
Stream size : 2.45 KiB (0%)
Title : FORCED
Language : Italian
Default : Yes
Forced : No

Text #2
ID : 4
Format : UTF-8
Codec ID : S_TEXT/UTF8
Codec ID/Info : UTF-8 Plain Text
Duration : 1 h 53 min
Bit rate : 65 b/s
Count of elements : 1412
Stream size : 55.0 KiB (0%)
Title : REGOLARI
Language : Italian
Default : No
Forced : No

Text #3
ID : 5
Format : UTF-8
Codec ID : S_TEXT/UTF8
Codec ID/Info : UTF-8 Plain Text
Duration : 1 h 53 min
Bit rate : 66 b/s
Count of elements : 1429
Stream size : 55.1 KiB (0%)
Title : NON UDENTI
Language : Italian
Default : No
Forced : No




Screenshots BDRip

La truffa dei Logan / Logan Lucky (2017)

La truffa dei Logan / Logan Lucky (2017)

La truffa dei Logan / Logan Lucky (2017)


Screenshots BDRip 720p

La truffa dei Logan / Logan Lucky (2017)

La truffa dei Logan / Logan Lucky (2017)

La truffa dei Logan / Logan Lucky (2017)