Tags
Language
Tags

La truffa dei Logan / Logan Lucky (2017)

Posted By: JohnSmith
SD / BDRip IMDb
La truffa dei Logan / Logan Lucky (2017)

La truffa dei Logan / Logan Lucky (2017)
BDRip MD | AVI / XviD@2088 kb/s | 720x304 | 1h 59mn | 1.84 GB | Italian (dubbed): MP3, 128 kb/s (2 ch)
Genre: Comedy | Crime | Drama

Jimmy Logan, un minatore del West Virginia, convince il fratello Clyde, un veterano della guerra in Iraq, e la sorella Mellie, una parrucchiera, a prendere parte a un elaborato piano per mettere a segno una rapina ai danni del Charlotte Motor Speedway. Per riuscire nel suo intento, Jimmy cerca l'aiuto dell'esperto Joe Bang ma non tutto fila liscio come dovrebbe. A rendere il piano ancora più rischioso è il fatto che i ladri siano costretti a mettere a segno il colpo durante il Coca-Cola 600, l'evento NASCAR più popolare dell'anno. Cercando di riuscire nell'impresa, i Logan hanno un ulteriore ostacolo da superare quando su di loro inizia a indagare una inesorabile agente dell'FBI.

IMDB - 2 wins & 9 nominations.



General
Unique ID : 217798004252516551855598274141421920769 (0xA3DA5EACA3B7915A849F56618B1D6201)
Complete name : A:\La.Truffa.Dei.Logan.2018.iTALiAN.MD.BDRip.XviD-DDLV.avi
Format : Matroska
Format version : Version 4 / Version 2
File size : 1.84 GiB
Duration : 1 h 59 min
Overall bit rate : 2 218 kb/s
Encoded date : UTC 2018-05-31 18:18:47
Writing application : mkvmerge v7.8.0 ('River Man') 64bit built on Mar 27 2015 16:31:37
Writing library : libebml v1.3.1 + libmatroska v1.4.2
FileExtension_Invalid : mkv mk3d mka mks

Video
ID : 1
Format : MPEG-4 Visual
Format profile : Advanced Simple@L5
Format settings, BVOP : 2
Format settings, QPel : No
Format settings, GMC : No warppoints
Format settings, Matrix : Default (H.263)
Muxing mode : Packed bitstream
Codec ID : V_MS/VFW/FOURCC / XVID
Codec ID/Hint : XviD
Duration : 1 h 59 min
Bit rate : 2 088 kb/s
Width : 720 pixels
Height : 304 pixels
Display aspect ratio : 2.35:1
Frame rate mode : Constant
Frame rate : 23.976 (23976/1000) FPS
Color space : YUV
Chroma subsampling : 4:2:0
Bit depth : 8 bits
Scan type : Progressive
Compression mode : Lossy
Bits/(Pixel*Frame) : 0.398
Stream size : 1.74 GiB (94%)
Writing library : XviD 73
Default : Yes
Forced : No

Audio
ID : 2
Format : MPEG Audio
Format version : Version 1
Format profile : Layer 3
Mode : Joint stereo
Mode extension : MS Stereo
Codec ID : A_MPEG/L3
Codec ID/Hint : MP3
Duration : 1 h 59 min
Bit rate mode : Constant
Bit rate : 128 kb/s
Channel(s) : 2 channels
Sampling rate : 48.0 kHz
Frame rate : 41.667 FPS (1152 spf)
Compression mode : Lossy
Stream size : 109 MiB (6%)
Title : MD DDLV
Writing library : LAME3.98r
Encoding settings : -m j -V 4 -q 3 -lowpass 17 -b 128
Language : Italian
Default : Yes
Forced : No




Screenshots

La truffa dei Logan / Logan Lucky (2017)

La truffa dei Logan / Logan Lucky (2017)

La truffa dei Logan / Logan Lucky (2017)