La foresta di ghiaccio (2014)

Posted By: NaVi7
La foresta di ghiaccio (2014)

La foresta di ghiaccio (2014)
DVDRip | MKV / AVC, 592 Kbps | 720x288 | 1h 43mn | 783 MiB
Italian: AC3, 448 Kbps (6 ch) | Subtitles: None
Genre: Thriller

Il film racconta un incredibile mistero che si sviluppa dietro l'apparente serenità di un piccolo paese alpino. Con una tempesta che incombe minacciosa sullo sfondo, Pietro, un giovane tecnico specializzato, arriva nella valle per riparare un guasto alla centrale elettrica in alta quota, e si trova improvvisamente di fronte ad una strana sparizione. Si consuma quindi lo scontro fra il giovane Pietro e due fratelli, Lorenzo e Secondo, che vivono e lavorano nella zona. Quando il ragazzo comprende l'origine dei segreti nascosti nel cuore della valle, le tensioni esplodono e comincia un gioco di specchi deformanti in cui nessuno è immune dal sospetto, neppure Lana, la zoologa esperta di orsi.

imdb - 1 nomination.

General
Unique ID : 152422859643428301545424298887361687474 (0x72AB93308E172F1523D73AF9CDCD6FB2)
Complete name : La.Foresta.Di.Ghiaccio.2014.iTALiAN.AC3.DVDRip.mkv
Format : Matroska
Format version : Version 2
File size : 783 MiB
Duration : 1h 43mn
Overall bit rate : 1 061 Kbps
Writing application : HandBrake 0.10.0 2014112200
Writing library : Lavf55.12.0

Video
ID : 1
Format : AVC
Format/Info : Advanced Video Codec
Format profile : Main@L4.0
Format settings, CABAC : Yes
Format settings, ReFrames : 4 frames
Codec ID : V_MPEG4/ISO/AVC
Duration : 1h 43mn
Bit rate : 592 Kbps
Width : 720 pixels
Height : 288 pixels
Display aspect ratio : 2.500
Frame rate mode : Constant
Frame rate : 25.000 fps
Color space : YUV
Chroma subsampling : 4:2:0
Bit depth : 8 bits
Scan type : Progressive
Bits/(Pixel*Frame) : 0.114
Stream size : 437 MiB (56%)
Writing library : x264 core 142 r2479 dd79a61
Encoding settings : cabac=1 / ref=1 / deblock=1:0:0 / analyse=0x1:0x111 / me=hex / subme=2 / psy=1 / psy_rd=1.00:0.00 / mixed_ref=0 / me_range=16 / chroma_me=1 / trellis=0 / 8x8dct=0 / cqm=0 / deadzone=21,11 / fast_pskip=1 / chroma_qp_offset=0 / threads=12 / lookahead_threads=2 / sliced_threads=0 / nr=0 / decimate=1 / interlaced=0 / bluray_compat=0 / constrained_intra=0 / bframes=3 / b_pyramid=2 / b_adapt=1 / b_bias=0 / direct=1 / weightb=1 / open_gop=0 / weightp=1 / keyint=250 / keyint_min=25 / scenecut=40 / intra_refresh=0 / rc_lookahead=10 / rc=crf / mbtree=1 / crf=20.0 / qcomp=0.60 / qpmin=0 / qpmax=69 / qpstep=4 / vbv_maxrate=20000 / vbv_bufsize=25000 / crf_max=0.0 / nal_hrd=none / filler=0 / ip_ratio=1.40 / aq=1:1.00
Default : Yes
Forced : No
Color primaries : BT.601 PAL
Transfer characteristics : BT.709
Matrix coefficients : BT.601
Color range : Limited

Audio
ID : 2
Format : AC-3
Format/Info : Audio Coding 3
Mode extension : CM (complete main)
Format settings, Endianness : Big
Codec ID : A_AC3
Duration : 1h 43mn
Bit rate mode : Constant
Bit rate : 448 Kbps
Channel(s) : 6 channels
Channel positions : Front: L C R, Side: L R, LFE
Sampling rate : 48.0 KHz
Bit depth : 16 bits
Compression mode : Lossy
Delay relative to video : 27ms
Stream size : 331 MiB (42%)
Title : Surround
Default : Yes
Forced : No


screenshots:

La foresta di ghiaccio (2014)

La foresta di ghiaccio (2014)

La foresta di ghiaccio (2014)