Tags
Language
Tags

Land of the Lost (2009)

Posted By: Tavaz
1080p (FullHD) / BDRip IMDb
Land of the Lost (2009)

Land of the Lost (2009)
BDRip | MKV | 1920x1080 | English | H264 @ 5760 kbps | AC-3 @ 448 kbps | 1 h 41 min | 4.55 GiB
Subtitles: English
Genre: Adventure, Comedy, Science Fiction, Family

On his latest expedition, Dr. Rick Marshall is sucked into a space-time vortex alongside his research assistant and a redneck survivalist. In this alternate universe, the trio make friends with a primate named Chaka, their only ally in a world full of dinosaurs and other fantastic creatures.

51b6854fb68b08936344fb7715c4ae66.mkv (4.5 GB)



General
Complete name : ./51b6854fb68b08936344fb7715c4ae66.mkv
Format : Matroska
Format version : Version 4 / Version 2
File size : 4.55 GiB
Duration : 1 h 41 min
Overall bit rate : 6 401 kb/s
Encoded date : UTC 2020-05-23 21:18:18 / UTC 2020-05-23T03:27:45Z
Writing application : mkvmerge v38.0.0 ('The Silent Type') 64-bit
Writing library : libebml v1.3.9 + libmatroska v1.5.2 / Lavf57.7.2

Video
ID : 1
Format : AVC
Format/Info : Advanced Video Codec
Format profile : High@L4
Format settings : CABAC / 4 Ref Frames
Format settings, CABAC : Yes
Format settings, RefFrames : 4 frames
Codec ID : V_MPEG4/ISO/AVC
Duration : 1 h 41 min
Bit rate : 5 760 kb/s
Width : 1 920 pixels
Height : 1 080 pixels
Display aspect ratio : 16:9
Frame rate mode : Constant
Frame rate : 23.976 (24000/1001) FPS
Color space : YUV
Chroma subsampling : 4:2:0
Bit depth : 8 bits
Scan type : Progressive
Bits/(Pixel*Frame) : 0.116
Stream size : 4.00 GiB (88%)
Writing library : x264 core 155 r2901 7d0ff22
Encoding settings : cabac=1 / ref=4 / deblock=1:-3:-3 / analyse=0x3:0x133 / me=umh / subme=9 / psy=1 / psy_rd=1.10:0.25 / mixed_ref=1 / me_range=32 / chroma_me=1 / trellis=2 / 8x8dct=1 / cqm=0 / deadzone=6,6 / fast_pskip=1 / chroma_qp_offset=-4 / threads=34 / lookahead_threads=3 / sliced_threads=0 / nr=0 / decimate=1 / interlaced=0 / bluray_compat=0 / constrained_intra=0 / bframes=6 / b_pyramid=2 / b_adapt=2 / b_bias=0 / direct=3 / weightb=1 / open_gop=0 / weightp=2 / keyint=240 / keyint_min=24 / scenecut=40 / intra_refresh=0 / rc_lookahead=40 / rc=2pass / mbtree=1 / bitrate=5760 / ratetol=1.0 / qcomp=0.60 / qpmin=0 / qpmax=69 / qpstep=4 / cplxblur=20.0 / qblur=0.5 / vbv_maxrate=20000 / vbv_bufsize=25000 / nal_hrd=none / filler=0 / ip_ratio=1.40 / aq=1:1.00
Default : Yes
Forced : No
Color range : Limited
Color primaries : BT.709
Transfer characteristics : BT.709
Matrix coefficients : BT.709
Statistics Tags Issue : mkvmerge v38.0.0 ('The Silent Type') 64-bit 2020-05-23 21:18:18 / mkvmerge v38.0.0 ('The Silent Type') 64-bit 2020-05-23 21:18:18 / UTC 2020-05-23T03:27:45Z
FromStats_BitRate : 5758488
FromStats_Duration : 01:41:40.928000000
FromStats_FrameCount : 146276
FromStats_StreamSize : 4391515834

Audio #1
ID : 2
Format : AC-3
Format/Info : Audio Coding 3
Format settings, Endianness : Big
Codec ID : A_AC3
Duration : 1 h 41 min
Bit rate mode : Constant
Bit rate : 448 kb/s
Channel(s) : 6 channels
Channel positions : Front: L C R, Side: L R, LFE
Sampling rate : 48.0 kHz
Frame rate : 31.250 FPS (1536 SPF)
Bit depth : 16 bits
Compression mode : Lossy
Stream size : 326 MiB (7%)
Title : Surround
Language : English
Service kind : Complete Main
Default : Yes
Forced : No
Statistics Tags Issue : mkvmerge v38.0.0 ('The Silent Type') 64-bit 2020-05-23 21:18:18 / mkvmerge v38.0.0 ('The Silent Type') 64-bit 2020-05-23 21:18:18 / UTC 2020-05-23T03:27:45Z
FromStats_BitRate : 448000
FromStats_Duration : 01:41:40.960000000
FromStats_FrameCount : 190655
FromStats_StreamSize : 341653760

Audio #2
ID : 3
Format : AC-3
Format/Info : Audio Coding 3
Mode : Dolby Digital
Format settings, Endianness : Big
Codec ID : A_AC3
Duration : 1 h 41 min
Bit rate mode : Constant
Bit rate : 192 kb/s
Channel(s) : 2 channels
Channel positions : Front: L R
Sampling rate : 48.0 kHz
Frame rate : 31.250 FPS (1536 SPF)
Bit depth : 16 bits
Compression mode : Lossy
Stream size : 140 MiB (3%)
Title : Stereo commentary
Language : English
Service kind : Complete Main
Default : No
Forced : No
Statistics Tags Issue : mkvmerge v38.0.0 ('The Silent Type') 64-bit 2020-05-23 21:18:18 / mkvmerge v38.0.0 ('The Silent Type') 64-bit 2020-05-23 21:18:18 / UTC 2020-05-23T03:27:45Z
FromStats_BitRate : 192000
FromStats_Duration : 01:41:40.992000000
FromStats_FrameCount : 190656
FromStats_StreamSize : 146423808

Text
ID : 4
Format : UTF-8
Codec ID : S_TEXT/UTF8
Codec ID/Info : UTF-8 Plain Text
Language : English
Default : Yes
Forced : No
Statistics Tags Issue : mkvmerge v38.0.0 ('The Silent Type') 64-bit 2020-05-23 21:18:18 / mkvmerge v38.0.0 ('The Silent Type') 64-bit 2020-05-23 21:18:18 / UTC 2020-05-23T03:27:45Z
FromStats_BitRate : 75
FromStats_Duration : 01:36:09.389000000
FromStats_FrameCount : 1649
FromStats_StreamSize : 54142

Menu
00:00:00.000 : :Lauer vs. Marshall
00:03:56.027 : :Routine Expedition
00:09:38.286 : :The Greatest Earthquake Ever Known
00:15:13.913 : :Chaka
00:20:27.059 : :Grumpy
00:26:16.617 : :Base Camp
00:30:31.747 : :Beware of Sleestak
00:35:35.133 : :Enik the Altrusian
00:40:44.108 : :Dinosaur Camo
00:44:37.425 : :Feeding Time
00:51:37.386 : :Giving Up
00:57:40.791 : :I Hope I Get It
01:02:30.622 : :Margala MAdness
01:05:20.291 : :The Zarn's Warning
01:10:22.385 : :Library of Skulls
01:15:04.583 : :Your Own "Vault"
01:22:05.003 : :Deuced Out
01:25:52.272 : :Return Home
01:30:10.739 : :Kings
01:32:54.986 : :End Titles





Land of the Lost (2009)


Land of the Lost (2009)


Land of the Lost (2009)


Land of the Lost (2009)


Land of the Lost (2009)