Tags
Language
Tags

Late Night - Die Show ihres Lebens (2019)

Posted By: Barfin
1080p (FullHD) / BDRip IMDb
Late Night - Die Show ihres Lebens (2019)

Late Night - Die Show ihres Lebens (2019)
BDRip 1080p | MKV / AVC@4578 kb/s | 1920x1040 | 1h 41mn
Deutsch (dubbed): DTS, 1509 kb/s (6 ch) | Subtitles: Deutsch | 4.34 GB
Genre: Comedy | Drama

Katherine Newbury ist eine Legende auf ihrem Gebiet: Als Late-Night-Talkshow-Moderatorin war sie ein Pionier und ist allseits bewundert. Doch dann wird sie eines Tages beschuldigt, eine Frau zu sein, die Frauen hasst. Um diesen Vorwurf zu entkräftigen muss sofort eine Lösung her und so wird erstmals in der Geschichte von Katherines Sendung eine weibliche Autorin in den ansonsten nur männlich besetzten Writer's Room gelassen: Molly.


General
Unique ID : 170155049597973079403137030452165713193 (0x8002ABA742B22D5EBFCA4C12CB8B9D29)
Complete name : G:\Late.Night.Die.Show.ihres.Lebens.2019.German.1080p.BluRay.x264.mkv
Format : Matroska
Format version : Version 4
File size : 4.34 GiB
Duration : 1 h 41 min
Overall bit rate : 6 098 kb/s
Encoded date : UTC 2019-12-16 08:50:17
Writing application : mkvmerge v7.8.0 ('River Man') 32bit built on Apr 3 2015 12:11:22
Writing library : libebml v1.3.1 + libmatroska v1.4.2

Video
ID : 1
Format : AVC
Format/Info : Advanced Video Codec
Format profile : High@L4.1
Format settings : CABAC / 4 Ref Frames
Format settings, CABAC : Yes
Format settings, ReFrames : 4 frames
Codec ID : V_MPEG4/ISO/AVC
Duration : 1 h 41 min
Bit rate : 4 578 kb/s
Width : 1 920 pixels
Height : 1 040 pixels
Display aspect ratio : 1.85:1
Frame rate mode : Constant
Frame rate : 24.000 FPS
Color space : YUV
Chroma subsampling : 4:2:0
Bit depth : 8 bits
Scan type : Progressive
Bits/(Pixel*Frame) : 0.096
Stream size : 3.26 GiB (75%)
Writing library : x264 core 157 r2969 d4099dd
Encoding settings : cabac=1 / ref=4 / deblock=1:-1:-1 / analyse=0x3:0x133 / me=umh / subme=7 / psy=1 / psy_rd=1.00:0.15 / mixed_ref=1 / me_range=16 / chroma_me=1 / trellis=1 / 8x8dct=1 / cqm=0 / deadzone=21,11 / fast_pskip=0 / chroma_qp_offset=-3 / threads=16 / lookahead_threads=2 / sliced_threads=0 / nr=0 / decimate=1 / interlaced=0 / bluray_compat=0 / constrained_intra=0 / bframes=3 / b_pyramid=2 / b_adapt=1 / b_bias=0 / direct=1 / weightb=1 / open_gop=0 / weightp=2 / keyint=250 / keyint_min=24 / scenecut=40 / intra_refresh=0 / rc_lookahead=40 / rc=crf / mbtree=1 / crf=20.0 / qcomp=0.60 / qpmin=0 / qpmax=69 / qpstep=4 / ip_ratio=1.40 / aq=1:1.00
Default : Yes
Forced : No

Audio
ID : 2
Format : DTS
Format/Info : Digital Theater Systems
Codec ID : A_DTS
Duration : 1 h 41 min
Bit rate mode : Constant
Bit rate : 1 509 kb/s
Channel(s) : 6 channels
Channel layout : C L R Ls Rs LFE
Sampling rate : 48.0 kHz
Frame rate : 93.750 FPS (512 SPF)
Bit depth : 16 bits
Compression mode : Lossy
Stream size : 1.07 GiB (25%)
Language : German
Default : Yes
Forced : No

Text #1
ID : 3
Format : VobSub
Muxing mode : zlib
Codec ID : S_VOBSUB
Codec ID/Info : Picture based subtitle format used on DVDs
Duration : 1 h 35 min
Bit rate : 9 141 b/s
Count of elements : 1816
Stream size : 6.26 MiB (0%)
Language : German
Default : No
Forced : No

Text #2
ID : 4
Format : UTF-8
Codec ID : S_TEXT/UTF8
Codec ID/Info : UTF-8 Plain Text
Duration : 39 min 6 s
Bit rate : 0 b/s
Count of elements : 5
Stream size : 88.0 Bytes (0%)
Language : German
Default : Yes
Forced : Yes

Menu
00:00:00.000 : en:00:00:00.000
00:14:24.583 : en:00:14:24.583
00:29:35.625 : en:00:29:35.625
00:41:07.000 : en:00:41:07.000
00:49:49.000 : en:00:49:49.000
01:02:33.000 : en:01:02:33.000
01:14:41.000 : en:01:14:41.000
01:26:34.625 : en:01:26:34.625




Screenshots

Late Night - Die Show ihres Lebens (2019)

Late Night - Die Show ihres Lebens (2019)

Late Night - Die Show ihres Lebens (2019)