L'éden et après (1970)

Posted By: Rare-1
L'éden et après (1970)

L'éden et après / Eden and After (1970)
BDRip | Lang: French | MKV | 1196x720 | AVC, @ 6502 Kbps, 23.976 fps | 01:38:19 | Subs: English, (embedded in MKV) | 5 GB
Audio: AC3, 48000 Hz, stereo, 640 Kbps
Genre: Drama, Horror | France

A group of students go to the Eden club where they play bizarre and cruel games including fake Russian Roulette, strange rituals, rape, blood-drinking and poison, until a mysterious stranger appears and ups the ante. After a bloody magic trick, he provides an African drug to a girl who sees a montage of fearful images and then slowly appears to live them, wandering into a strange fluid factory and into a postcard of Tunisia, where murders, S&M sex, dancing and a nonsensical plot of kidnapping and torture in order to locate a painting take place. The film is an experience, a reality created by illusions, hallucinations and drugs, with bizarre visuals and details emerging little by little as some images develop into scenes, albeit incoherent ones.

IMDB 7.2/10 from 369 users

Director: Alain Robbe-Grillet
Writer: Alain Robbe-Grillet
Actors: Catherine Jourdan, Lorraine Rainer, Sylvain Corthay, Richard Leduc
Rated: N/A
Runtime: 93 min

L'éden et après (1970)


More Screenshots:

L'éden et après (1970)


General
Unique ID : 210935363976510186491150104126724776368 (0x9EB0AC62B6D18B27AB8A74A83BCC21B0)
Complete name : I:\Eden.and.After.1970.720p.BluRay.AVC-mfcorrea\Eden.and.After.1970.720p.BluRay.AVC-mfcorrea.mkv
Format : Matroska
Format version : Version 4 / Version 2
File size : 5.00 GiB
Duration : 1h 38mn
Overall bit rate : 7 287 Kbps
Encoded date : UTC 2014-05-16 10:43:28
Writing application : mkvmerge v6.9.1 ('Blue Panther') 32bit built on Apr 18 2014 18:15:44
Writing library : libebml v1.3.0 + libmatroska v1.4.1

Video
ID : 1
Format : AVC
Format/Info : Advanced Video Codec
Format profile : High@L4.1
Format settings, CABAC : Yes
Format settings, ReFrames : 8 frames
Codec ID : V_MPEG4/ISO/AVC
Duration : 1h 38mn
Bit rate : 6 502 Kbps
Width : 1 196 pixels
Height : 720 pixels
Display aspect ratio : 1.661
Frame rate mode : Constant
Frame rate : 23.976 fps
Color space : YUV
Chroma subsampling : 4:2:0
Bit depth : 8 bits
Scan type : Progressive
Bits/(Pixel*Frame) : 0.315
Stream size : 4.47 GiB (89%)
Language : English
Default : No
Forced : No
Color primaries : BT.709
Transfer characteristics : BT.709
Matrix coefficients : BT.709

Audio
ID : 2
Format : AC-3
Format/Info : Audio Coding 3
Mode extension : CM (complete main)
Format settings, Endianness : Big
Codec ID : A_AC3
Duration : 1h 38mn
Bit rate mode : Constant
Bit rate : 640 Kbps
Channel(s) : 2 channels
Channel positions : Front: L R
Sampling rate : 48.0 KHz
Bit depth : 16 bits
Compression mode : Lossy
Stream size : 450 MiB (9%)
Language : French
Default : No
Forced : No

Text
ID : 3
Format : VobSub
Muxing mode : zlib
Codec ID : S_VOBSUB
Codec ID/Info : The same subtitle format used on DVDs
Language : English
Default : No
Forced : No


Many Thanks to Original uploader.


For More Rare Movies Check out my blog!

Download Links :

No Mirrors Please